<?xml version="1.0" standalone="no"?>
<!DOCTYPE svg PUBLIC "-//W3C//DTD SVG 1.1//EN" "http://www.w3.org/Graphics/SVG/1.1/DTD/svg11.dtd" >
<svg xmlns="http://www.w3.org/2000/svg">
<metadata>
Created by FontPrep 20130207 at Fri Aug  1 09:49:25 2014
 By Tone Creative
Copyright (c) 2011 by vernon adams. All rights reserved.
</metadata>
<defs>
<font id="06e91909362921b8a6ebe38382ac36f9" horiz-adv-x='1024' >
  <font-face 
    font-family="Oswald"
    font-weight="400"
    font-stretch="normal"
    units-per-em="2048"
    panose-1="2 0 5 6 0 0 0 2 0 4"
    ascent="1638"
    descent="-410"
    x-height="1280"
    cap-height="1792"
    bbox="-211 -632 2757 2424"
    underline-thickness="102"
    underline-position="-103"
    unicode-range="U+0020-FB04"
  />
<missing-glyph horiz-adv-x="748" 
d="M136 68h408v1229h-408v-1229zM68 0v1365h544v-1365h-544z" />
    <glyph glyph-name="uniFB00" unicode="ff" horiz-adv-x="1220" 
d="M1030 1376v-96h192v-192h-192v-1088h-256v1088h-344v-1088h-256v1088h-128v192h128v49q0 160 24 229q24 70 56 102q68 68 210 68q62 0 158 -12v-190l-86 10q-64 0 -85 -40t-21 -120v-96h344v49q0 160 24 229q24 70 56 102q68 68 210 68q62 0 158 -12v-190l-86 10
q-64 0 -85 -40t-21 -120z" />
    <glyph glyph-name="uniFB01" unicode="fi" horiz-adv-x="1186" 
d="M430 1376v-96h628v-1280h-256v1088h-372v-1088h-256v1088h-128v192h128v49q0 160 24 229q24 70 56 102q68 68 210 68q62 0 158 -12v-190l-86 10q-64 0 -85 -40t-21 -120zM802 1728h256v-256h-256v256z" />
    <glyph glyph-name="uniFB02" unicode="fl" horiz-adv-x="1161" 
d="M1042 0h-256v1522q-166 14 -240 14t-95 -40t-21 -120v-96h192v-192h-192v-1088h-256v1088h-128v192h128v49q0 160 24 229q24 70 56 102q68 68 234 68q205 0 554 -47v-1681z" />
    <glyph glyph-name="uniFB03" unicode="ffi" horiz-adv-x="1718" 
d="M1334 1728h256v-256h-256v256zM430 1376v-96h306v49q0 160 24 229q24 70 56 102q68 68 210 68q62 0 158 -12v-190l-86 10q-64 0 -85 -40t-21 -120v-96h598v-1280h-256v1088h-342v-1088h-256v1088h-306v-1088h-256v1088h-128v192h128v49q0 160 24 229q24 70 56 102
q68 68 210 68q62 0 158 -12v-190l-86 10q-64 0 -85 -40t-21 -120z" />
    <glyph glyph-name="uniFB04" unicode="ffl" horiz-adv-x="1677" 
d="M430 1376v-96h282v49q0 160 24 229q24 70 56 102q68 68 192 68q123 0 223 -6t351 -41v-1681h-256v1522q-142 14 -217 14t-96 -40t-21 -120v-96h192v-192h-192v-1088h-256v1088h-282v-1088h-256v1088h-128v192h128v49q0 160 24 229q24 70 56 102q68 68 210 68
q62 0 158 -12v-190l-86 10q-64 0 -85 -40t-21 -120z" />
    <glyph glyph-name=".notdef" horiz-adv-x="748" 
d="M136 68h408v1229h-408v-1229zM68 0v1365h544v-1365h-544z" />
    <glyph glyph-name=".null" horiz-adv-x="0" 
 />
    <glyph glyph-name="nonmarkingreturn" horiz-adv-x="537" 
 />
    <glyph glyph-name="space" unicode=" " horiz-adv-x="350" 
 />
    <glyph glyph-name="space" unicode="&#xa0;" horiz-adv-x="350" 
 />
    <glyph glyph-name="exclam" unicode="!" horiz-adv-x="375" 
d="M64 256h256v-256h-256v256zM64 1792h256l-46 -1408h-146z" />
    <glyph glyph-name="quotedbl" unicode="&#x22;" horiz-adv-x="704" 
d="M385 1792h256l-64 -464h-128zM62 1792h256l-64 -464h-128z" />
    <glyph glyph-name="numbersign" unicode="#" horiz-adv-x="1088" 
d="M437 832h193l27 192h-192zM1024 1024h-111l-28 -192h139v-192h-166l-90 -640h-256l90 640h-192l-90 -640h-256l90 640h-90v192h117l28 192h-145v192h172l82 576h256l-82 -576h192l82 576h256l-82 -576h84v-192z" />
    <glyph glyph-name="dollar" unicode="$" horiz-adv-x="1216" 
d="M832 374q0 146 -108 254l-20 20v-450q128 30 128 176zM384 1405q0 -152 128 -253l64 -51v499q-92 0 -142 -52t-50 -143zM127 1378q0 198 123 315t326 117v110h128v-121l41 -9q316 -86 343 -446l-256 -64q-9 188 -108 269l-20 15v-566l128 -102q256 -198 256 -506
q0 -170 -104 -278t-280 -127v-113h-128v113q-208 15 -322 157t-126 370l256 64q10 -293 171 -368l21 -8v555l-256 205q-193 156 -193 418z" />
    <glyph glyph-name="percent" unicode="%" horiz-adv-x="1999" 
d="M1034 1518h219l-282 -1518h-220zM1421 488q-1 -292 133 -293q134 1 134 293t-134 292t-133 -292zM1276 140q-88 140 -88 353q0 212 86 347t280 135q276 1 346 -291q20 -86 21 -192q0 -106 -21 -192q-21 -88 -64 -156q-91 -145 -281 -144q-191 0 -279 140zM311 1028
q-1 -293 133 -293t134 293t-134 293t-133 -293zM166 681q-88 140 -88 351q0 348 197 448q71 36 159 36t150 -24q116 -46 172 -167q55 -120 55 -259q1 -138 -21 -226t-65 -155q-91 -144 -281 -144t-278 140z" />
    <glyph glyph-name="ampersand" unicode="&#x26;" horiz-adv-x="1344" 
d="M384 384q0 -192 128 -192q122 0 224 128l-123 183q-13 21 -65 87t-67 114q-97 -128 -97 -320zM704 1472q0 58 -35 93t-97 35t-92 -56q-32 -56 -32 -129q0 -157 97 -391q63 80 111 206t48 242zM1216 832q0 -122 -47 -253t-112 -229q75 -94 159 -94v-274q-56 0 -86 11
t-46 17t-38 20q-22 16 -33 22q-10 6 -33 26q-22 21 -30 27q-7 6 -54 52q-138 -175 -384 -175q-178 0 -281 110t-103 292q0 286 256 512q-14 30 -58 110t-67 128t-45 126t-22 148q0 180 104 291t274 111t280 -92t110 -246q0 -234 -236 -490q-36 -38 -84 -86l256 -384
q35 79 64 320h256z" />
    <glyph glyph-name="quotesingle" unicode="'" horiz-adv-x="384" 
d="M62 1792h256l-64 -464h-128z" />
    <glyph glyph-name="parenleft" unicode="(" horiz-adv-x="640" 
d="M576 -64q-168 0 -256 88q-46 46 -78 96q-34 50 -54 130q-45 174 -53 321q-7 148 -7 298q0 149 2 223t10 188q9 114 26 184q49 202 129 282q111 110 281 110v-192q-50 0 -86 -32q-66 -57 -88 -186q-21 -130 -21 -303l3 -247l-3 -251q0 -286 49 -402q49 -115 146 -115v-192
z" />
    <glyph glyph-name="parenright" unicode=")" horiz-adv-x="640" 
d="M64 1664v192q168 0 256 -88q46 -46 78 -96q34 -50 54 -130q45 -174 53 -321q7 -148 7 -298q0 -149 -2 -223t-10 -188q-9 -114 -26 -184q-49 -202 -129 -282q-111 -110 -281 -110v192q50 0 86 32q66 57 88 186q21 130 21 303l-3 247l3 251q0 286 -49 402q-49 115 -146 115
z" />
    <glyph glyph-name="asterisk" unicode="*" horiz-adv-x="896" 
d="M343 904l-152 90l172 243l-257 98l61 161l245 -132l-28 300h192l-29 -300l246 132l61 -161l-257 -99l172 -242l-152 -90l-137 277z" />
    <glyph glyph-name="plus" unicode="+" horiz-adv-x="704" 
d="M256 384v192h-192v192h192v192h192v-192h192v-192h-192v-192h-192z" />
    <glyph glyph-name="comma" unicode="," horiz-adv-x="408" 
d="M76 256h256q0 -250 -6 -310q-12 -114 -54 -158q-41 -44 -132 -44l-64 128q68 0 98 30t30 98h-128v256z" />
    <glyph glyph-name="hyphen" unicode="-" horiz-adv-x="384" 
d="M0 640h384v-192h-384v192z" />
    <glyph glyph-name="period" unicode="." horiz-adv-x="384" 
d="M64 256h256v-256h-256v256z" />
    <glyph glyph-name="slash" unicode="/" horiz-adv-x="832" 
d="M575 1792h257l-576 -1792h-256z" />
    <glyph glyph-name="zero" unicode="0" horiz-adv-x="1088" 
d="M352 512q0 -320 192 -320t192 320v768q0 179 -50 250q-50 70 -142 70q-167 0 -188 -224q-4 -42 -4 -96v-768zM992 512q0 -242 -114 -386t-334 -144q-146 0 -248 69q-200 134 -200 461v768q0 246 112 388t336 142t336 -142t112 -388v-768z" />
    <glyph glyph-name="one" unicode="1" horiz-adv-x="640" 
d="M512 1792v-1792h-256v1408h-192v192q193 69 256 192h192z" />
    <glyph glyph-name="two" unicode="2" horiz-adv-x="1020" 
d="M72 1280q0 530 448 530q218 0 333 -122t115 -344q0 -166 -54 -279t-138 -233l-448 -576h640v-256h-897v256l449 640q110 151 125 185q42 92 55 146q12 53 12 139t-50 160t-150 74q-101 0 -143 -96q-41 -96 -41 -224v-64h-256v64z" />
    <glyph glyph-name="three" unicode="3" horiz-adv-x="1027" 
d="M974 512q0 -530 -448 -530q-218 0 -333 122t-115 344v64h256q0 -193 48 -257q48 -63 144 -63q140 0 174 131q18 71 18 207t-60 219t-196 83v256q140 0 198 58t58 191q0 135 -42 199t-150 64q-140 0 -174 -131q-18 -71 -18 -189h-256v64q0 220 116 343t332 123
q218 0 333 -122t115 -344q0 -152 -68 -250t-188 -134q124 -42 190 -157t66 -291z" />
    <glyph glyph-name="four" unicode="4" horiz-adv-x="1087" 
d="M595 702v770l-256 -770h256zM595 460h-512v285l448 1048h320v-1091h198v-242h-198v-460h-256v460z" />
    <glyph glyph-name="five" unicode="5" horiz-adv-x="1050" 
d="M732 674q0 28 -1 58t-5 66t-13 59q-20 61 -60 89t-110 28t-120 -44t-73 -104h-218v966h792v-256h-560l-16 -434q108 64 256 64q248 0 334 -213q50 -125 50 -276q0 -152 -12 -245q-27 -211 -130 -330q-103 -120 -327 -120q-223 0 -325 134t-102 396h256v-40
q0 -168 45 -227t121 -59q69 0 100 18q30 18 46 36q16 17 27 38t19 46q8 24 14 52q4 28 7 58t3 62t2 64v60v54z" />
    <glyph glyph-name="six" unicode="6" horiz-adv-x="1083" 
d="M368 512q0 -128 30 -197t68 -96q39 -27 94 -27q110 0 151 96t41 224v58q0 150 -24 208t-40 71t-42 30t-86 17q-124 0 -192 -128v-256zM112 1152q0 503 268 623q78 35 180 35q216 0 332 -122t116 -344h-256q0 128 -42 192t-150 64q-192 0 -192 -384v-256q74 128 256 128
q216 0 300 -141t84 -384t-106 -412t-342 -169q-264 0 -380 246q-68 144 -68 348v576z" />
    <glyph glyph-name="seven" unicode="7" horiz-adv-x="826" 
d="M45 1792h717v-123l-326 -1669h-246l328 1579h-473v213z" />
    <glyph glyph-name="eight" unicode="8" horiz-adv-x="1024" 
d="M513 818q-193 0 -193 -304q0 -194 50 -260q47 -62 143 -62q139 0 173 134q18 68 18 159t-8 141t-28 96q-42 96 -155 96zM64 511q0 167 46 269t148 166q-86 65 -127 160t-41 238q0 222 106 344t316 122t316 -122t106 -344q0 -144 -40 -238t-127 -160q101 -66 147 -168
t46 -267q0 -257 -106 -393t-342 -136t-342 136t-106 393zM673 1344q0 256 -161 256t-161 -256q-1 -205 77 -258q34 -23 84 -23q101 -1 134 89q27 74 27 192z" />
    <glyph glyph-name="nine" unicode="9" horiz-adv-x="1083" 
d="M732 1280q0 128 -30 197t-68 96q-39 27 -94 27q-110 0 -151 -96t-41 -224v-58q0 -150 24 -208t40 -71t41 -30t87 -17q122 0 192 128v256zM988 640q0 -503 -268 -623q-78 -35 -180 -35q-216 0 -332 122t-116 344h256q0 -128 42 -192t150 -64q192 0 192 384v256
q-76 -128 -256 -128q-216 0 -300 141t-84 384t106 412t342 169q264 0 380 -246q68 -144 68 -348v-576z" />
    <glyph glyph-name="colon" unicode=":" horiz-adv-x="439" 
d="M128 512h256v-256h-256v256zM128 1088h256v-256h-256v256z" />
    <glyph glyph-name="semicolon" unicode=";" horiz-adv-x="384" 
d="M64 512h256q0 -250 -6 -310q-12 -114 -54 -158q-41 -44 -132 -44l-64 128q68 0 98 30t30 98h-128v256zM64 1088h256v-256h-256v256z" />
    <glyph glyph-name="less" unicode="&#x3c;" horiz-adv-x="832" 
d="M64 768l640 448v-256l-448 -319l448 -321v-256l-640 448v256z" />
    <glyph glyph-name="equal" unicode="=" horiz-adv-x="704" 
d="M64 255v192h576v-192h-576zM64 576v192h576v-192h-576z" />
    <glyph glyph-name="greater" unicode="&#x3e;" horiz-adv-x="832" 
d="M768 512l-640 -448v256l448 321l-448 319v256l640 -448v-256z" />
    <glyph glyph-name="question" unicode="?" horiz-adv-x="1152" 
d="M384 256h256v-256h-256v256zM768 1216q0 192 -192 192q-108 0 -150 -64t-42 -192h-256v64q0 220 116 334t333 114q218 0 333 -116t115 -330q1 -214 -101 -352t-284 -226v-256h-256v320q220 133 302 252t82 260z" />
    <glyph glyph-name="at" unicode="@" horiz-adv-x="1782" 
d="M1654 768q0 -208 -91 -342t-277 -134q-96 0 -168 34t-107 94q-57 -128 -167 -128t-186 56q-146 109 -146 345q0 373 184 475q54 30 120 29t102 -37t40 -99v127h256v-568q0 -38 3 -60t19 -40t46 -18q116 0 116 266q0 460 -266 571q-98 41 -232 41q-264 0 -390 -168
t-126 -444q0 -340 127 -522t447 -182q125 0 296 55l94 -196q-223 -51 -390 -51q-434 0 -632 222t-198 674q0 372 203 588t569 216t560 -212t194 -592zM884 502q69 0 74 40v403q-7 51 -53 51t-63 -14q-18 -14 -28 -24t-18 -29t-12 -31q-5 -12 -8 -38q-2 -26 -4 -40
q-4 -32 -4 -84v-43q0 -191 116 -191z" />
    <glyph glyph-name="A" unicode="A" horiz-adv-x="1038" 
d="M647 640l-128 768l-128 -768h256zM359 448l-96 -448h-256l384 1792h256l384 -1792h-256l-96 448h-320z" />
    <glyph glyph-name="B" unicode="B" horiz-adv-x="1136" 
d="M512 1024q320 0 320 320q0 156 -98 206q-72 37 -153 44q-80 6 -197 6v-576h128zM832 512q0 168 -77 244t-243 76h-128v-640h128q166 0 243 76t77 244zM1088 512q0 -236 -138 -374t-374 -138h-448v1792h384q248 0 397 -107t149 -341q0 -168 -71 -256t-219 -128
q160 -54 240 -156t80 -292z" />
    <glyph glyph-name="C" unicode="C" horiz-adv-x="1107" 
d="M1065 576q1 -594 -467 -594q-232 0 -350 120q-152 156 -152 539v511q0 383 152 538q118 120 340 120q263 0 370 -157t107 -437h-256q0 146 -7 184t-15 66t-19 46q-54 88 -178 88q-176 0 -216 -156q-22 -84 -22 -228v-640q0 -212 63 -298t173 -86q196 0 217 268
q4 50 4 116v64h256v-64z" />
    <glyph glyph-name="D" unicode="D" horiz-adv-x="1133" 
d="M781 1216q0 158 -8 195t-17 65q-8 28 -22 45q-39 47 -88 63t-126 16h-136v-1408h141q146 0 198 69t55 184q4 115 4 140q-1 24 -1 29v602zM1037 576q1 -296 -117 -436t-397 -140h-395v1792h397q281 0 397 -115t115 -397v-704z" />
    <glyph glyph-name="E" unicode="E" horiz-adv-x="861" 
d="M704 832h-320v-640h448v-192h-704v1792h704v-192h-448v-576h320v-192z" />
    <glyph glyph-name="F" unicode="F" horiz-adv-x="821" 
d="M832 1600h-448v-576h320v-192h-320v-832h-256v1792h704v-192z" />
    <glyph glyph-name="G" unicode="G" horiz-adv-x="1199" 
d="M613 192q59 0 106 25q87 46 116 157t29 266v64h-256v190h512v-894h-192l-64 192q-75 -210 -256 -210q-349 0 -452 283q-60 164 -60 433v454q0 658 522 658q263 0 375 -158t112 -436h-256q-1 171 -17 222q-31 95 -80 129q-50 33 -131 33q-158 0 -214 -106
q-55 -106 -55 -278v-576q0 -217 44 -310q44 -94 116 -122q42 -16 101 -16z" />
    <glyph glyph-name="H" unicode="H" horiz-adv-x="1216" 
d="M832 832h-448v-832h-256v1792h256v-768h448v768h256v-1792h-256v832z" />
    <glyph glyph-name="I" unicode="I" horiz-adv-x="542" 
d="M140 1792h256v-1792h-256v1792z" />
    <glyph glyph-name="J" unicode="J" horiz-adv-x="640" 
d="M0 192q84 0 130 9t76 39t40 76q10 48 10 132v1344h256v-1344q0 -122 -16 -202t-58 -137q-80 -109 -310 -109h-128v192z" />
    <glyph glyph-name="K" unicode="K" horiz-adv-x="1118" 
d="M384 0h-256v1792h256v-768l384 768h320l-385 -704l449 -1088h-320l-320 832l-128 -256v-576z" />
    <glyph glyph-name="L" unicode="L" horiz-adv-x="823" 
d="M128 0v1792h256v-1600h448v-192h-704z" />
    <glyph glyph-name="M" unicode="M" horiz-adv-x="1472" 
d="M384 0h-256v1792h354l254 -1372l254 1372h354v-1792h-256v1414l-256 -1414h-192l-256 1414v-1414z" />
    <glyph glyph-name="N" unicode="N" horiz-adv-x="1152" 
d="M384 0h-256v1792h192l448 -1108v1108h256v-1792h-182l-458 1192v-1192z" />
    <glyph glyph-name="O" unicode="O" horiz-adv-x="1180" 
d="M590 1600q-136 0 -187 -77t-51 -233v-778q0 -158 52 -239t186 -81t186 81t52 239v778q0 156 -51 233t-187 77zM590 1810q262 0 378 -150t116 -434v-650q0 -438 -264 -552q-96 -42 -230 -42q-268 0 -381 156t-113 438v650q0 439 262 545q96 39 232 39z" />
    <glyph glyph-name="P" unicode="P" horiz-adv-x="1041" 
d="M702 1533q-38 39 -96 53q-60 14 -158 14h-64v-576h64q167 0 244 49q76 49 76 222q0 172 -66 238zM1024 1280q0 -220 -116 -334t-332 -114h-192v-832h-256v1792h448q448 0 448 -512z" />
    <glyph glyph-name="Q" unicode="Q" horiz-adv-x="1180" 
d="M828 1290q0 156 -51 233t-187 77t-187 -77t-51 -233v-778q0 -158 52 -239t186 -81t186 81t52 239v778zM1063 -256q-109 0 -217 76t-156 169q-43 -7 -100 -7q-269 0 -381 156q-113 156 -113 438v650q0 439 262 545q96 39 232 39q262 0 378 -150t116 -434v-650
q0 -396 -215 -527q29 -43 87 -69t107 -26v-210z" />
    <glyph glyph-name="R" unicode="R" horiz-adv-x="1108" 
d="M768 1312q0 152 -80 220t-240 68h-64v-576h64q160 0 240 68t80 220zM1024 1312q0 -160 -57 -268t-167 -148l288 -896h-254l-258 832h-192v-832h-256v1792h320q286 0 431 -111t145 -369z" />
    <glyph glyph-name="S" unicode="S" horiz-adv-x="1102" 
d="M339 1405q0 -151 128 -253l320 -256q256 -207 256 -495q1 -197 -121 -308t-346 -111t-350 142q-128 142 -143 388l256 64q19 -384 256 -384q192 0 192 192q0 115 -55 185t-137 135l-320 256q-89 70 -141 176t-52 242q0 198 123 315t341 117t349 -122q130 -122 148 -344
l-256 -64q-8 134 -67 227q-58 93 -202 93q-78 0 -129 -52q-50 -52 -50 -143z" />
    <glyph glyph-name="T" unicode="T" horiz-adv-x="888" 
d="M892 1792v-228h-320v-1564h-256v1564h-320v228h896z" />
    <glyph glyph-name="U" unicode="U" horiz-adv-x="1252" 
d="M1138 640q0 -388 -160 -542q-122 -118 -352 -117q-336 0 -446 257q-66 154 -66 402v1152h256v-1152q0 -269 62 -358q62 -90 194 -90q131 0 187 80q55 80 65 229q4 56 4 139v1152h256v-1152z" />
    <glyph glyph-name="V" unicode="V" horiz-adv-x="1048" 
d="M591 832l189 960h256l-384 -1792h-256l-384 1792h256l189 -960l66 -448z" />
    <glyph glyph-name="W" unicode="W" horiz-adv-x="1558" 
d="M907 1792l128 -832l63 -512l65 512l128 832h256l-320 -1792h-256l-128 832l-64 512l-64 -512l-128 -832h-256l-320 1792h256l128 -832l65 -512l63 512l128 832h256z" />
    <glyph glyph-name="X" unicode="X" horiz-adv-x="1070" 
d="M535 768l-254 -768h-256l318 929l-320 863h256l256 -704l256 704h256l-320 -859l316 -933h-254z" />
    <glyph glyph-name="Y" unicode="Y" horiz-adv-x="1018" 
d="M381 0v576l-384 1216h256l256 -896l256 896h256l-384 -1216v-576h-256z" />
    <glyph glyph-name="Z" unicode="Z" horiz-adv-x="951" 
d="M894 192v-192h-832v192l576 1408h-512v192h768v-192l-576 -1408h576z" />
    <glyph glyph-name="bracketleft" unicode="[" horiz-adv-x="768" 
d="M128 1856h512v-128h-256v-1664h256v-128h-512v1920z" />
    <glyph glyph-name="backslash" unicode="\" horiz-adv-x="576" 
d="M512 0h-256l-192 1792h256z" />
    <glyph glyph-name="bracketright" unicode="]" horiz-adv-x="768" 
d="M640 -64h-512v128h256v1664h-256v128h512v-1920z" />
    <glyph glyph-name="asciicircum" unicode="^" horiz-adv-x="896" 
d="M576 1536l256 -640h-256l-129 448l-127 -448h-256l256 640h256z" />
    <glyph glyph-name="underscore" unicode="_" horiz-adv-x="768" 
d="M0 192h768v-192h-768v192z" />
    <glyph glyph-name="grave" unicode="`" horiz-adv-x="640" 
d="M128 1792h256l128 -384h-128z" />
    <glyph glyph-name="a" unicode="a" horiz-adv-x="922" 
d="M311 351q0 -159 128 -159q59 0 115 78q10 14 13 16v354q-16 -11 -53 -34q-37 -24 -59 -38q-70 -46 -107 -97t-37 -120zM567 896q0 204 -116 204q-61 0 -91 -29q-48 -48 -49 -175h-256q2 184 103 293q100 109 280 109t282 -110t103 -292v-576q0 -200 33 -320h-255l-34 192
q-64 -128 -120 -169t-136 -41q-107 0 -181 92t-75 198q-1 104 31 180t67 122t117 94t124 66t103 42t70 28v92z" />
    <glyph glyph-name="b" unicode="b" horiz-adv-x="1042" 
d="M949 577q-1 -296 -97 -461q-34 -58 -92 -96t-133 -38q-76 0 -136 37t-118 97v-116h-256v1791h256v-638q109 115 178 135q37 10 92 10t106 -24t84 -56q33 -33 56 -95q43 -115 51 -238q9 -123 9 -291v-17zM565 1088q-106 0 -192 -51v-805q99 -40 192 -40q83 0 109 116
q22 95 21 238l-2 159l1 118q0 150 -32 208q-32 57 -97 57z" />
    <glyph glyph-name="c" unicode="c" horiz-adv-x="901" 
d="M478 192q26 0 46 8t34 20t23 34q18 46 21 91t3 103h256q0 -224 -90 -345t-297 -121t-294 151q-54 93 -67 196q-14 102 -17 165t-3 146t3 146q2 63 12 135t26 124q80 253 327 253q232 0 316 -121t84 -345h-256q0 148 -32 208q-32 59 -89 59q-58 0 -86 -41t-36 -86
q-7 -46 -10 -74q-6 -56 -4 -135q1 -80 1 -123l-2 -122q0 -187 26 -244t53 -70q26 -12 52 -12z" />
    <glyph glyph-name="d" unicode="d" horiz-adv-x="1042" 
d="M553 1256q58 -42 116 -103v638h256v-1791h-256v116q-58 -60 -118 -97t-136 -37q-75 0 -133 38q-104 68 -147 223q-42 156 -42 334v12q0 317 18 393t41 140t56 96t84 56t127 24t134 -42zM477 1088q-50 0 -70 -24t-30 -40q-29 -51 -29 -208l1 -111q0 -44 -1 -105v-105
q0 -45 4 -77t8 -69q8 -61 37 -109t80 -48q93 0 192 40v805q-86 51 -192 51z" />
    <glyph glyph-name="e" unicode="e" horiz-adv-x="910" 
d="M605 768q0 156 -17 218q-28 102 -108 102q-124 0 -129 -205q-2 -65 -2 -88v-27h256zM349 576q0 -158 3 -196q23 -182 125 -188q65 0 92 41t32 90t5 125h255q0 -230 -91 -348q-92 -118 -298 -118t-293 158q-55 99 -70 230q-16 131 -16 263q-1 132 5 205q6 72 20 148
t42 129t68 97q42 44 104 64q62 22 145 22t145 -22t104 -64q85 -89 110 -225q25 -135 25 -317v-30h-512v-64z" />
    <glyph glyph-name="f" unicode="f" horiz-adv-x="620" 
d="M430 1376v-96h192v-192h-192v-1088h-256v1088h-128v192h128v49q0 160 24 229q24 70 56 102q68 68 210 68q62 0 158 -12v-190l-86 10q-64 0 -85 -40t-21 -120z" />
    <glyph glyph-name="g" unicode="g" horiz-adv-x="968" 
d="M466 560q160 0 160 280t-160 280q-94 0 -127 -89t-33 -199q0 -272 160 -272zM754 -99q0 18 -4 33q-14 76 -201 98l-211 25q-38 -28 -66 -81q-28 -52 -28 -112t194 -60l92 2q224 0 224 95zM82 832q0 282 172 404q88 62 217 62q127 0 205 -70q34 -30 66 -81q81 151 236 151
v-210q-96 0 -160 -64q32 -94 32 -210t-40 -219t-130 -165q-88 -62 -214 -62q-37 0 -81 7l-48 8q-2 -5 -10 -17q-9 -12 -17 -28q-8 -15 -8 -39t25 -42q25 -19 69 -27t84 -12t91 -6q50 -2 88 -8q39 -6 83 -16q112 -26 174 -85q62 -58 62 -167q0 -200 -189 -276
q-107 -44 -273 -43q-166 0 -217 8q-51 9 -96 17q-71 13 -128 53t-57 125t54 156t138 113q-52 15 -90 43t-38 75t20 84q20 35 26 47t22 32q14 20 20 28t22 28t18 22q-128 152 -128 384z" />
    <glyph glyph-name="h" unicode="h" 
d="M706 1298q77 0 128 -60t51 -147v-1091h-256v960q-1 66 -17 97t-82 31t-157 -75v-1013h-256v1792h256v-650q57 52 93 80t100 52t140 24z" />
    <glyph glyph-name="i" unicode="i" horiz-adv-x="512" 
d="M128 1728h256v-256h-256v256zM128 1280h256v-1280h-256v1280z" />
    <glyph glyph-name="j" unicode="j" horiz-adv-x="507" 
d="M150 1728h256v-256h-256v256zM86 -320q-84 0 -128 17v182q35 -7 64 -7q128 0 128 149v1259h256v-1287q0 -149 -86 -231t-234 -82z" />
    <glyph glyph-name="k" unicode="k" horiz-adv-x="943" 
d="M373 1792v-985l320 473h256l-287 -447l287 -833h-256l-192 619l-128 -171v-448h-256v1792h256z" />
    <glyph glyph-name="l" unicode="l" horiz-adv-x="497" 
d="M378 0h-256v1792h256v-1792z" />
    <glyph glyph-name="m" unicode="m" horiz-adv-x="1504" 
d="M885 0h-256v989q0 99 -64 99q-94 0 -192 -81v-1007h-256v1280h256v-145q137 163 319 163q92 0 135 -40t58 -129q63 83 136 126t177 43t139 -46t43 -78q7 -33 10 -52q7 -44 7 -114v-1008h-256v934q0 87 -8 111q-15 42 -56 43q-86 0 -192 -86v-1002z" />
    <glyph glyph-name="n" unicode="n" 
d="M706 1298q77 0 128 -60t51 -147v-1091h-256v960q0 68 -19 98q-18 30 -64 30t-83 -15t-90 -60v-1013h-256v1280h256v-138q57 52 93 80t100 52t140 24z" />
    <glyph glyph-name="o" unicode="o" horiz-adv-x="954" 
d="M477 1088q-27 0 -47 -8t-34 -20t-23 -34q-18 -46 -21 -91t-3 -103v-384q-1 -120 7 -146t17 -48t23 -34t34 -20t47 -8t47 8t34 20t23 34q18 46 21 91t3 103v384q1 120 -7 146t-17 48t-23 34t-34 20t-47 8zM477 -18q-206 0 -295 120t-89 346v384q0 226 89 346t295 120
t295 -120t89 -346v-384q0 -226 -89 -346t-295 -120z" />
    <glyph glyph-name="p" unicode="p" horiz-adv-x="1042" 
d="M693 714q0 154 -9 202q-19 103 -52 144q-32 41 -87 41t-89 -18q-34 -17 -40 -21t-23 -14q-16 -10 -20 -12v-792q88 -52 192 -52q83 0 109 116q22 95 21 237l-2 159v10zM949 576q-1 -295 -97 -460q-34 -58 -92 -96t-131 -38q-130 0 -256 133v-499h-256v1664h256v-128
q90 96 124 111q74 35 137 35q64 0 115 -24t84 -56t56 -94q43 -114 51 -237q9 -123 9 -292v-19z" />
    <glyph glyph-name="q" unicode="q" horiz-adv-x="1042" 
d="M349 734v-39q0 -36 -1 -97v-104t4 -76t8 -70q8 -61 37 -109q28 -47 80 -47q101 0 192 52v792q-4 2 -20 12q-17 10 -23 14t-21 11q-52 28 -94 28q-43 0 -67 -14t-40 -34t-27 -56q-28 -91 -28 -263zM552 1257q57 -41 117 -105v128h256v-1664h-256v499q-57 -59 -117 -96
t-137 -37q-75 0 -133 38q-102 66 -146 221q-43 156 -43 335v12q0 318 18 394t41 140t56 96t84 56t127 24t133 -41z" />
    <glyph glyph-name="r" unicode="r" horiz-adv-x="680" 
d="M652 1298q3 0 41 -4v-283q-71 28 -147 28t-124 -48q-49 -48 -49 -127v-864h-256v1280h256v-171q39 77 113 133t166 56z" />
    <glyph glyph-name="s" unicode="s" horiz-adv-x="872" 
d="M248 384q68 -192 194 -192t126 142q0 75 -64 134l-256 192q-140 95 -176 200q-16 46 -16 100q0 164 104 251t280 87q234 0 338 -208q30 -58 46 -130l-192 -64q-50 136 -121 174q-32 18 -82 18q-49 0 -83 -34t-34 -94t64 -108l256 -192q142 -112 177 -231q15 -51 15 -109
q0 -164 -104 -251t-272 -87q-166 0 -262 94t-130 244z" />
    <glyph glyph-name="t" unicode="t" horiz-adv-x="658" 
d="M459 -18q-151 0 -219 77t-71 233v796h-128v192h128v448h256v-448h192v-192h-192v-747q0 -77 21 -113t85 -36q29 0 86 10v-208q-96 -12 -158 -12z" />
    <glyph glyph-name="u" unicode="u" 
d="M107 189v1091h256v-1013q1 -40 25 -65t54 -25t50 5q20 6 40 18t30 20q12 8 32 25q20 18 25 22v1013h256v-1280h-256v138q-119 -103 -159 -120q-86 -36 -169 -36q-82 0 -133 60t-51 147z" />
    <glyph glyph-name="v" unicode="v" horiz-adv-x="864" 
d="M304 0l-288 1280h256l160 -960l160 960h256l-286 -1280h-258z" />
    <glyph glyph-name="w" unicode="w" horiz-adv-x="1269" 
d="M635 882l-138 -882h-246l-237 1280h227l142 -972l134 972h234l136 -962l140 962h228l-248 -1280h-236z" />
    <glyph glyph-name="x" unicode="x" horiz-adv-x="838" 
d="M259 640v64l-256 576h256l152 -503l168 503h256l-256 -576v-64l256 -640h-256l-152 503l-168 -503h-256z" />
    <glyph glyph-name="y" unicode="y" horiz-adv-x="842" 
d="M74 -128q104 0 165 46t61 140l-290 1222h256q149 -823 161 -896q34 218 87 506q54 289 72 390h256l-320 -1344q-32 -142 -142 -199t-306 -57v192z" />
    <glyph glyph-name="z" unicode="z" horiz-adv-x="782" 
d="M105 1088v192h640v-192l-448 -896h448v-192h-704v192l448 896h-384z" />
    <glyph glyph-name="braceleft" unicode="{" horiz-adv-x="704" 
d="M448 512q0 -172 15 -237q33 -147 177 -147v-192q-263 0 -355 145q-93 145 -93 431v42v42t-1 36q-1 25 -3 35t-6 28t-12 26q-25 31 -48 39t-58 8v256q51 0 69 24q19 24 29 39t16 45t8 50q4 20 5 56t1 56v60v112t22 156t74 138q54 54 138 74q84 22 214 22v-192
q-117 0 -148 -38q-32 -38 -38 -85t-6 -133q0 -422 -192 -512q192 -83 192 -384z" />
    <glyph glyph-name="bar" unicode="|" horiz-adv-x="384" 
d="M128 1920h192v-2048h-192v2048z" />
    <glyph glyph-name="braceright" unicode="}" horiz-adv-x="704" 
d="M640 1024v-256q-63 0 -84 -21q-36 -36 -41 -86q-5 -51 -4 -94q1 -42 1 -107t-12 -151q-27 -191 -128 -282t-308 -91v192q62 0 87 16t39 28t24 32q10 22 18 38t12 46t6 48q6 42 6 110v66q0 303 192 384q-192 86 -192 512q0 115 -6 140t-14 43q-6 18 -16 28q-45 45 -156 45
v192q172 0 268 -42t138 -138t42 -268l-1 -113q0 -155 28 -204t53 -58q24 -9 48 -9z" />
    <glyph glyph-name="asciitilde" unicode="~" horiz-adv-x="960" 
d="M613 812q-49 0 -99 22t-97 44t-88 21q-48 0 -48 -67h-154q-1 116 57 194t163 79q58 0 145 -43t137 -43t50 69h154q-1 -120 -57 -198t-163 -78z" />
    <glyph glyph-name="exclamdown" unicode="&#xa1;" horiz-adv-x="384" 
d="M64 1536h256v-256h-256v256zM256 1152v-1152h-192l64 1152h128z" />
    <glyph glyph-name="cent" unicode="&#xa2;" horiz-adv-x="1027" 
d="M385 640l-2 -152q-1 -103 7 -138q8 -36 18 -66q19 -57 71 -78v865q-49 -24 -64 -67q-15 -44 -21 -70t-8 -71t-2 -71v-78q1 -54 1 -74zM557 -128h-78v113q-170 13 -247 104q-78 90 -96 264q-8 75 -7 179v201q0 203 32 299q33 96 71 144q84 103 247 118v114h78v-114
q178 -20 259 -137t81 -326l-256 1q0 101 -16 159t-68 82v-866q67 33 78 133q6 54 6 133h256l1 -43q0 -191 -86 -308t-255 -136v-114z" />
    <glyph glyph-name="sterling" unicode="&#xa3;" horiz-adv-x="896" 
d="M640 1344q0 186 -59 234q-27 22 -65 22t-61 -18q-42 -30 -55 -98q-14 -69 -16 -154v-370h256v-192h-256v-576h448v-192h-832v128l128 63v577h-128v192h128v192q0 274 40 402t123 192q82 64 234 64q153 0 229 -104t78 -284v-78h-192z" />
    <glyph glyph-name="currency" unicode="&#xa4;" horiz-adv-x="1024" 
d="M320 897q0 -95 50 -155t142 -60t142 59t50 155t-50 155t-142 59t-142 -58t-50 -155zM512 1280q134 0 231 -63l86 86l90 -90l-87 -87q64 -98 64 -230t-64 -231l87 -86l-90 -90l-86 86q-97 -63 -231 -63t-231 63l-86 -86l-90 90l86 86q-63 97 -63 231t63 231l-86 86l90 90
l86 -86q97 63 231 63z" />
    <glyph glyph-name="yen" unicode="&#xa5;" horiz-adv-x="1024" 
d="M384 0v256h-192v168h192v129h-192v166h149l-293 1073h260l204 -944l202 944h260l-295 -1073h153v-166h-192v-129h192v-168h-192v-256h-256z" />
    <glyph glyph-name="brokenbar" unicode="&#xa6;" horiz-adv-x="395" 
d="M94 1518h203v-629h-203v629zM94 614h203v-628h-203v628z" />
    <glyph glyph-name="section" unicode="&#xa7;" horiz-adv-x="960" 
d="M608 882q0 50 -34 84l-46 46q-14 12 -46 36t-34 26q-96 -57 -96 -149q0 -34 19 -63t45 -45l96 -63q96 45 96 128zM469 1600q-49 0 -83 -34t-34 -94t64 -108q16 -9 59 -32t71 -39t78 -47q50 -30 76 -54q85 -73 125 -145q39 -72 39 -165q0 -195 -158 -286q74 -59 116 -123
t42 -152q0 -164 -104 -251t-280 -87q-230 1 -337 209q-30 58 -47 129l192 64q69 -192 192 -192q60 -1 94 33t34 89q0 116 -64 154l-256 156q-60 36 -98 71q-94 85 -94 212q0 235 186 318q-140 82 -171 160q-15 38 -15 86q0 164 104 251t280 87q234 0 338 -208
q30 -59 46 -130l-192 -64q-50 136 -121 174q-32 18 -82 18z" />
    <glyph glyph-name="dieresis" unicode="&#xa8;" horiz-adv-x="896" 
d="M512 1792h256v-256h-256v256zM128 1792h256v-256h-256v256z" />
    <glyph glyph-name="copyright" unicode="&#xa9;" horiz-adv-x="1528" 
d="M70 726q0 176 88 339t247 257t334 93q175 0 305 -55t220 -150q90 -96 142 -228t52 -308t-88 -338t-248 -256t-334 -94t-304 55t-220 150t-142 227t-52 308zM745 1260q-135 0 -255 -76t-184 -203q-64 -128 -64 -284q0 -157 65 -285t185 -204t272 -75q152 -1 272 75
t185 204t65 264t-38 241q-38 103 -106 179t-165 120q-98 44 -232 44zM874 578h179v-16q-1 -156 -71 -250t-227 -95q-157 0 -219 113q-41 74 -51 165t-10 203t6 174q15 153 80 230q65 78 213 78q281 0 281 -340h-183q0 144 -44 180q-20 16 -48 16t-46 -5t-31 -17t-22 -24
q-27 -38 -27 -166l1 -103q0 -38 -1 -82v-75t2 -52t8 -46q8 -41 33 -71t65 -30q76 1 96 71q16 56 16 142z" />
    <glyph glyph-name="ordfeminine" unicode="&#xaa;" horiz-adv-x="842" 
d="M303 237q0 -93 71 -93q36 0 66 22t45 53v189q-95 -51 -124 -76q-58 -47 -58 -95zM678 521v-521h-177v111q-29 -53 -83 -87t-126 -34q-74 0 -129 55t-55 131t26 124q26 50 90 85t102 49t92 32q56 16 67 20v94q0 139 -76 139q-90 0 -90 -151h-178q2 134 73 214t214 81
q143 0 196 -88q54 -88 54 -254z" />
    <glyph glyph-name="guillemotleft" unicode="&#xab;" horiz-adv-x="1024" 
d="M512 704l448 512v-320l-256 -255l256 -257v-320l-448 512v128zM64 704l448 512v-320l-256 -255l256 -257v-320l-448 512v128z" />
    <glyph glyph-name="logicalnot" unicode="&#xac;" horiz-adv-x="768" 
d="M128 640h512v-384h-128v192h-384v192z" />
    <glyph glyph-name="uni00AD" unicode="&#xad;" horiz-adv-x="768" 
d="M128 640h512v-192h-512v192z" />
    <glyph glyph-name="registered" unicode="&#xae;" horiz-adv-x="1528" 
d="M705 729q93 -1 127 35t34 122t-28 124t-95 39h-71v-320h33zM672 633v-385h-156v919h240q270 0 270 -274q0 -155 -125 -223l148 -422h-168l-127 385h-82zM70 726q0 176 88 339t247 257t334 93q175 0 305 -55t220 -150q90 -96 142 -228t52 -308t-88 -338t-248 -256
t-334 -94t-304 55t-220 150t-142 227t-52 308zM745 1260q-135 0 -255 -76t-184 -203q-64 -128 -64 -284q0 -157 65 -285t185 -204t272 -75q152 -1 272 75t185 204t65 264t-38 241q-38 103 -106 179t-165 120q-98 44 -232 44z" />
    <glyph glyph-name="macron" unicode="&#xaf;" horiz-adv-x="640" 
d="M123 1559h434v-152h-434v152z" />
    <glyph glyph-name="degree" unicode="&#xb0;" horiz-adv-x="1024" 
d="M320 1427q0 -95 50 -155t142 -60t142 59t50 155t-50 155t-142 59t-142 -58t-50 -155zM512 1810q180 0 282 -102t102 -282q0 -178 -102 -281t-282 -103t-282 103t-102 281t102 282q102 102 282 102z" />
    <glyph glyph-name="plusminus" unicode="&#xb1;" horiz-adv-x="832" 
d="M320 384v192h-192v192h192v192h192v-192h192v-192h-192v-192h-192zM128 192h576v-192h-576v192z" />
    <glyph glyph-name="uni00B2" unicode="&#xb2;" horiz-adv-x="640" 
d="M576 1216q0 -70 -38 -148t-81 -131t-109 -125t-92 -108h320v-128h-512v128l192 256q92 118 110 164t18 79v45t-2 29q-2 17 -6 27t-11 20t-18 16q-11 4 -27 4t-27 -4t-18 -16q-19 -28 -19 -108h-192q0 120 66 188t190 68t190 -68t66 -188z" />
    <glyph glyph-name="uni00B3" unicode="&#xb3;" horiz-adv-x="768" 
d="M320 1152q72 0 100 28t28 99t-6 85t-13 24t-18 16q-11 4 -27 4t-27 -4t-18 -16q-19 -28 -19 -108h-192q0 120 66 188t190 68t190 -68t66 -173q0 -106 -52 -155t-140 -52q90 -6 141 -53t51 -153t-66 -174t-190 -68t-190 67t-66 189h192q0 -70 6 -84t13 -24t18 -16
q11 -4 27 -4t27 4t18 16q14 22 17 49q2 28 2 79q0 52 -28 80t-100 28v128z" />
    <glyph glyph-name="acute" unicode="&#xb4;" horiz-adv-x="640" 
d="M256 1408h-128l128 384h256z" />
    <glyph glyph-name="uni00B5" unicode="&#xb5;" horiz-adv-x="1024" 
d="M384 -256h-256v1536h256v-1013q0 -40 24 -65t55 -25q30 0 50 5q19 6 39 18t31 20t31 25q20 18 26 22v1013h256v-1280h-256v138q-60 -132 -256 -138v-256z" />
    <glyph glyph-name="paragraph" unicode="&#xb6;" horiz-adv-x="952" 
d="M382 876q-164 0 -265 86t-101 248t107 244t300 82h473v-1536h-178v876h-139v-876h-197v876z" />
    <glyph glyph-name="cedilla" unicode="&#xb8;" horiz-adv-x="576" 
d="M172 -386q148 0 148 61q0 34 -22 51t-36 26q-14 8 -37 18q-22 10 -35 16t-35 12q-22 8 -27 10v192h128v-128q179 -50 231 -118q25 -32 25 -72t-11 -70t-29 -49q-18 -20 -46 -34q-54 -27 -119 -34t-158 -7h-85v128z" />
    <glyph glyph-name="uni00B9" unicode="&#xb9;" horiz-adv-x="512" 
d="M384 1536v-896h-192v576h-128v128q168 83 256 192h64z" />
    <glyph glyph-name="ordmasculine" unicode="&#xba;" horiz-adv-x="899" 
d="M574 688q0 132 -12 177q-24 87 -110 87t-112 -56t-27 -114q-1 -57 -1 -94v-237q0 -144 14 -175q14 -32 27 -52q26 -39 81 -38q55 0 71 12q15 12 25 18q10 8 17 24t11 26t8 32q3 22 5 34q3 16 3 77v279zM446 -14q-184 0 -266 108q-81 108 -81 316v319q0 208 81 316
q82 108 266 108t269 -113t85 -311v-319q0 -198 -85 -311t-269 -113z" />
    <glyph glyph-name="guillemotright" unicode="&#xbb;" horiz-adv-x="1024" 
d="M512 576l-448 -512v320l256 257l-256 255v320l448 -512v-128zM960 576l-448 -512v320l256 257l-256 255v320l448 -512v-128z" />
    <glyph glyph-name="onequarter" unicode="&#xbc;" horiz-adv-x="1601" 
d="M384 1536v-896h-192v576h-128v128q168 83 256 192h64zM895 1792h257l-576 -1792h-256zM1216 386v256l-128 -256h128zM1216 258h-320v128l340 576h172v-576h128v-128h-128v-256h-192v256z" />
    <glyph glyph-name="onehalf" unicode="&#xbd;" horiz-adv-x="1600" 
d="M384 1536v-896h-192v576h-128v128q168 83 256 192h64zM895 1792h257l-576 -1792h-256zM1536 642q0 -70 -38 -148t-81 -131t-109 -125t-92 -108h320v-128h-512v128l192 256q92 118 110 164t18 79v45t-2 29q-2 17 -6 27t-11 20t-18 16q-11 4 -27 4t-27 -4t-18 -16
q-19 -28 -19 -108h-192q0 120 66 188t190 68t190 -68t66 -188z" />
    <glyph glyph-name="threequarters" unicode="&#xbe;" horiz-adv-x="1793" 
d="M320 1152q72 0 100 28t28 99t-6 85t-13 24t-18 16q-11 4 -27 4t-27 -4t-18 -16q-19 -28 -19 -108h-192q0 120 66 188t190 68t190 -68t66 -173q0 -106 -52 -155t-140 -52q90 -6 141 -53t51 -153t-66 -174t-190 -68t-190 67t-66 189h192q0 -70 6 -84t13 -24t18 -16
q11 -4 27 -4t27 4t18 16q14 22 17 49q2 28 2 79q0 52 -28 80t-100 28v128zM1023 1792h257l-576 -1792h-256zM1344 386v256l-128 -256h128zM1344 258h-320v128l340 576h172v-576h128v-128h-128v-256h-192v256z" />
    <glyph glyph-name="questiondown" unicode="&#xbf;" horiz-adv-x="891" 
d="M564 1106h-221v223h221v-223zM80 346q0 122 63 218q63 95 104 141q43 45 53 57t49 50v217h216v-269q-12 -16 -55 -66q-73 -85 -132 -178q-60 -93 -60 -188q0 -126 112 -126q84 0 113 63q28 63 28 156h219v-25q0 -186 -92 -294t-268 -107q-350 0 -350 351z" />
    <glyph glyph-name="Agrave" unicode="&#xc0;" horiz-adv-x="1038" 
d="M647 640l-128 768l-128 -768h256zM359 448l-96 -448h-256l384 1792h256l384 -1792h-256l-96 448h-320zM199 2296h256l128 -384h-128z" />
    <glyph glyph-name="Aacute" unicode="&#xc1;" horiz-adv-x="1038" 
d="M647 640l-128 768l-128 -768h256zM359 448l-96 -448h-256l384 1792h256l384 -1792h-256l-96 448h-320zM583 1912h-128l128 384h256z" />
    <glyph glyph-name="Acircumflex" unicode="&#xc2;" horiz-adv-x="1038" 
d="M647 640l-128 768l-128 -768h256zM359 448l-96 -448h-256l384 1792h256l384 -1792h-256l-96 448h-320zM519 2168l-128 -256h-192l192 384h256l192 -384h-192z" />
    <glyph glyph-name="Atilde" unicode="&#xc3;" horiz-adv-x="1038" 
d="M647 640l-128 768l-128 -768h256zM359 448l-96 -448h-256l384 1792h256l384 -1792h-256l-96 448h-320zM652 1912q-60 0 -148 44t-136 43q-48 0 -48 -67h-154q0 116 58 194t162 79q58 0 145 -43t137 -43t50 69h154q0 -116 -58 -196t-162 -80z" />
    <glyph glyph-name="Adieresis" unicode="&#xc4;" horiz-adv-x="1038" 
d="M647 640l-128 768l-128 -768h256zM359 448l-96 -448h-256l384 1792h256l384 -1792h-256l-96 448h-320zM583 2168h256v-256h-256v256zM199 2168h256v-256h-256v256z" />
    <glyph glyph-name="Aring" unicode="&#xc5;" horiz-adv-x="1038" 
d="M647 640l-128 768l-128 -768h256zM359 448l-96 -448h-256l384 1792h256l384 -1792h-256l-96 448h-320zM263 2113q-1 116 69 186t187 70q160 0 225 -122q31 -58 31 -134q1 -116 -69 -186t-187 -70t-187 70t-69 186zM647 2098q0 143 -128 143q-60 0 -94 -34t-34 -94t34 -94
t94 -34q60 1 94 35t34 78z" />
    <glyph glyph-name="AE" unicode="&#xc6;" horiz-adv-x="1408" 
d="M640 640v658l-247 -658h247zM1216 832h-320v-640h448v-192h-704v448h-320l-191 -448h-255l764 1792h706v-192h-448v-576h320v-192z" />
    <glyph glyph-name="Ccedilla" unicode="&#xc7;" horiz-adv-x="1107" 
d="M560 -387q148 0 148 63q0 32 -22 49t-36 26q-37 24 -134 56v179q-347 35 -406 438q-14 96 -14 217v511q0 383 152 538q118 120 340 120q263 0 370 -157t107 -437h-256q0 146 -7 184t-15 66t-19 46q-54 88 -178 88q-176 0 -216 -156q-22 -84 -22 -228v-640q0 -212 63 -298
t173 -86q196 0 217 268q4 50 4 116v64h256v-64q1 -439 -251 -552q-73 -33 -170 -40v-113q168 -47 222 -109q34 -38 34 -73q0 -36 -4 -59q-4 -22 -16 -40q-10 -18 -23 -32t-31 -24t-38 -18q-18 -8 -43 -13q-80 -16 -207 -16h-86v128z" />
    <glyph glyph-name="Egrave" unicode="&#xc8;" horiz-adv-x="861" 
d="M704 832h-320v-640h448v-192h-704v1792h704v-192h-448v-576h320v-192zM160 2296h256l128 -384h-128z" />
    <glyph glyph-name="Eacute" unicode="&#xc9;" horiz-adv-x="861" 
d="M704 832h-320v-640h448v-192h-704v1792h704v-192h-448v-576h320v-192zM544 1912h-128l128 384h256z" />
    <glyph glyph-name="Ecircumflex" unicode="&#xca;" horiz-adv-x="861" 
d="M704 832h-320v-640h448v-192h-704v1792h704v-192h-448v-576h320v-192zM480 2168l-128 -256h-192l192 384h256l192 -384h-192z" />
    <glyph glyph-name="Edieresis" unicode="&#xcb;" horiz-adv-x="861" 
d="M704 832h-320v-640h448v-192h-704v1792h704v-192h-448v-576h320v-192zM544 2168h256v-256h-256v256zM160 2168h256v-256h-256v256z" />
    <glyph glyph-name="Igrave" unicode="&#xcc;" horiz-adv-x="542" 
d="M140 1792h256v-1792h-256v1792zM-52 2296h256l128 -384h-128z" />
    <glyph glyph-name="Iacute" unicode="&#xcd;" horiz-adv-x="542" 
d="M140 1792h256v-1792h-256v1792zM332 1912h-128l128 384h256z" />
    <glyph glyph-name="Icircumflex" unicode="&#xce;" horiz-adv-x="542" 
d="M140 1792h256v-1792h-256v1792zM268 2168l-128 -256h-192l192 384h256l192 -384h-192z" />
    <glyph glyph-name="Idieresis" unicode="&#xcf;" horiz-adv-x="542" 
d="M140 1792h256v-1792h-256v1792zM332 2168h256v-256h-256v256zM-52 2168h256v-256h-256v256z" />
    <glyph glyph-name="Eth" unicode="&#xd0;" horiz-adv-x="1152" 
d="M768 1216q0 158 -8 195t-17 65t-23 45q-39 47 -87 63q-49 16 -126 16h-123v-596h144v-152h-144v-660h128q146 0 198 69t55 184q4 115 4 140q-1 24 -1 29v602zM1024 576q0 -296 -118 -436t-396 -140h-382v852h-94v152h94v788h384q280 0 396 -115t116 -397v-704z" />
    <glyph glyph-name="Ntilde" unicode="&#xd1;" horiz-adv-x="1152" 
d="M384 0h-256v1792h192l448 -1108v1108h256v-1792h-182l-458 1192v-1192zM709 1912q-49 0 -99 22t-97 44t-88 21q-48 0 -48 -67h-154q-1 116 57 194t163 79q58 0 145 -43t137 -43t50 69h154q1 -116 -57 -196t-163 -80z" />
    <glyph glyph-name="Ograve" unicode="&#xd2;" horiz-adv-x="1180" 
d="M590 1600q-136 0 -187 -77t-51 -233v-778q0 -158 52 -239t186 -81t186 81t52 239v778q0 156 -51 233t-187 77zM590 1810q262 0 378 -150t116 -434v-650q0 -438 -264 -552q-96 -42 -230 -42q-268 0 -381 156t-113 438v650q0 439 262 545q96 39 232 39zM270 2296h256
l128 -384h-128z" />
    <glyph glyph-name="Oacute" unicode="&#xd3;" horiz-adv-x="1180" 
d="M590 1600q-136 0 -187 -77t-51 -233v-778q0 -158 52 -239t186 -81t186 81t52 239v778q0 156 -51 233t-187 77zM590 1810q262 0 378 -150t116 -434v-650q0 -438 -264 -552q-96 -42 -230 -42q-268 0 -381 156t-113 438v650q0 439 262 545q96 39 232 39zM654 1912h-128
l128 384h256z" />
    <glyph glyph-name="Ocircumflex" unicode="&#xd4;" horiz-adv-x="1180" 
d="M590 1600q-136 0 -187 -77t-51 -233v-778q0 -158 52 -239t186 -81t186 81t52 239v778q0 156 -51 233t-187 77zM590 1810q262 0 378 -150t116 -434v-650q0 -438 -264 -552q-96 -42 -230 -42q-268 0 -381 156t-113 438v650q0 439 262 545q96 39 232 39zM590 2168l-128 -256
h-192l192 384h256l192 -384h-192z" />
    <glyph glyph-name="Otilde" unicode="&#xd5;" horiz-adv-x="1180" 
d="M590 1600q-136 0 -187 -77t-51 -233v-778q0 -158 52 -239t186 -81t186 81t52 239v778q0 156 -51 233t-187 77zM590 1810q262 0 378 -150t116 -434v-650q0 -438 -264 -552q-96 -42 -230 -42q-268 0 -381 156t-113 438v650q0 439 262 545q96 39 232 39zM723 1912
q-49 0 -99 22t-97 44t-88 21q-48 0 -48 -67h-154q-1 116 57 194t163 79q58 0 145 -43t137 -43t50 69h154q1 -116 -57 -196t-163 -80z" />
    <glyph glyph-name="Odieresis" unicode="&#xd6;" horiz-adv-x="1180" 
d="M590 1600q-136 0 -187 -77t-51 -233v-778q0 -158 52 -239t186 -81t186 81t52 239v778q0 156 -51 233t-187 77zM590 1810q262 0 378 -150t116 -434v-650q0 -438 -264 -552q-96 -42 -230 -42q-268 0 -381 156t-113 438v650q0 439 262 545q96 39 232 39zM654 2168h256v-256
h-256v256zM270 2168h256v-256h-256v256z" />
    <glyph glyph-name="multiply" unicode="&#xd7;" horiz-adv-x="768" 
d="M384 512l-192 -192l-128 128l192 192l-192 192l128 128l192 -192l192 192l128 -128l-192 -192l192 -192l-128 -128z" />
    <glyph glyph-name="Oslash" unicode="&#xd8;" horiz-adv-x="1180" 
d="M590 192q134 0 186 81t52 239v778q0 126 -29 194l-336 -1265q51 -27 127 -27zM596 1600q-145 0 -195 -80q-49 -80 -49 -230v-778q0 -138 35 -211l336 1270q-51 29 -127 29zM96 576v650q0 439 262 545q96 39 218 39q120 0 203 -25l42 159l93 -24l-46 -174
q216 -126 216 -520v-650q0 -438 -264 -552q-96 -42 -214 -42t-199 24l-43 -162l-90 28l45 171q-223 126 -223 533z" />
    <glyph glyph-name="Ugrave" unicode="&#xd9;" horiz-adv-x="1252" 
d="M1138 640q0 -388 -160 -542q-122 -118 -352 -117q-336 0 -446 257q-66 154 -66 402v1152h256v-1152q0 -269 62 -358q62 -90 194 -90q131 0 187 80q55 80 65 229q4 56 4 139v1152h256v-1152zM306 2296h256l128 -384h-128z" />
    <glyph glyph-name="Uacute" unicode="&#xda;" horiz-adv-x="1252" 
d="M1138 640q0 -388 -160 -542q-122 -118 -352 -117q-336 0 -446 257q-66 154 -66 402v1152h256v-1152q0 -269 62 -358q62 -90 194 -90q131 0 187 80q55 80 65 229q4 56 4 139v1152h256v-1152zM690 1912h-128l128 384h256z" />
    <glyph glyph-name="Ucircumflex" unicode="&#xdb;" horiz-adv-x="1252" 
d="M1138 640q0 -388 -160 -542q-122 -118 -352 -117q-336 0 -446 257q-66 154 -66 402v1152h256v-1152q0 -269 62 -358q62 -90 194 -90q131 0 187 80q55 80 65 229q4 56 4 139v1152h256v-1152zM626 2168l-128 -256h-192l192 384h256l192 -384h-192z" />
    <glyph glyph-name="Udieresis" unicode="&#xdc;" horiz-adv-x="1252" 
d="M1138 640q0 -388 -160 -542q-122 -118 -352 -117q-336 0 -446 257q-66 154 -66 402v1152h256v-1152q0 -269 62 -358q62 -90 194 -90q131 0 187 80q55 80 65 229q4 56 4 139v1152h256v-1152zM690 2168h256v-256h-256v256zM306 2168h256v-256h-256v256z" />
    <glyph glyph-name="Yacute" unicode="&#xdd;" horiz-adv-x="1018" 
d="M381 0v576l-384 1216h256l256 -896l256 896h256l-384 -1216v-576h-256zM573 1912h-128l128 384h256z" />
    <glyph glyph-name="Thorn" unicode="&#xde;" horiz-adv-x="952" 
d="M369 581q155 -1 227 65t73 236t-63 238t-205 68h-77v-607h45zM931 886q0 -522 -474 -522h-131v-364h-254v1792h252v-381h180q216 1 322 -137t105 -388z" />
    <glyph glyph-name="germandbls" unicode="&#xdf;" horiz-adv-x="1152" 
d="M512 192q156 0 206 76t50 231q0 313 -256 313v212q154 0 190 202q10 54 9 116q0 118 -32 188t-132 70t-132 -66q-31 -66 -31 -175v-1359h-256v1354q0 208 98 332t304 124t318 -120t112 -346q0 -152 -54 -248t-165 -157q131 -36 207 -148t76 -279q0 -266 -125 -398
t-387 -132v210z" />
    <glyph glyph-name="agrave" unicode="&#xe0;" horiz-adv-x="922" 
d="M311 351q0 -159 128 -159q59 0 115 78q10 14 13 16v354q-16 -11 -53 -34q-37 -24 -59 -38q-70 -46 -107 -97t-37 -120zM567 896q0 204 -116 204q-61 0 -91 -29q-48 -48 -49 -175h-256q2 184 103 293q100 109 280 109t282 -110t103 -292v-576q0 -200 33 -320h-255l-34 192
q-64 -128 -120 -169t-136 -41q-107 0 -181 92t-75 198q-1 104 31 180t67 122t117 94t124 66t103 42t70 28v92zM136 1784h256l128 -384h-128z" />
    <glyph glyph-name="aacute" unicode="&#xe1;" horiz-adv-x="922" 
d="M311 351q0 -159 128 -159q59 0 115 78q10 14 13 16v354q-16 -11 -53 -34q-37 -24 -59 -38q-70 -46 -107 -97t-37 -120zM567 896q0 204 -116 204q-61 0 -91 -29q-48 -48 -49 -175h-256q2 184 103 293q100 109 280 109t282 -110t103 -292v-576q0 -200 33 -320h-255l-34 192
q-64 -128 -120 -169t-136 -41q-107 0 -181 92t-75 198q-1 104 31 180t67 122t117 94t124 66t103 42t70 28v92zM520 1400h-128l128 384h256z" />
    <glyph glyph-name="acircumflex" unicode="&#xe2;" horiz-adv-x="922" 
d="M311 351q0 -159 128 -159q59 0 115 78q10 14 13 16v354q-16 -11 -53 -34q-37 -24 -59 -38q-70 -46 -107 -97t-37 -120zM567 896q0 204 -116 204q-61 0 -91 -29q-48 -48 -49 -175h-256q2 184 103 293q100 109 280 109t282 -110t103 -292v-576q0 -200 33 -320h-255l-34 192
q-64 -128 -120 -169t-136 -41q-107 0 -181 92t-75 198q-1 104 31 180t67 122t117 94t124 66t103 42t70 28v92zM456 1656l-128 -256h-192l192 384h256l192 -384h-192z" />
    <glyph glyph-name="atilde" unicode="&#xe3;" horiz-adv-x="922" 
d="M311 351q0 -159 128 -159q59 0 115 78q10 14 13 16v354q-16 -11 -53 -34q-37 -24 -59 -38q-70 -46 -107 -97t-37 -120zM567 896q0 204 -116 204q-61 0 -91 -29q-48 -48 -49 -175h-256q2 184 103 293q100 109 280 109t282 -110t103 -292v-576q0 -200 33 -320h-255l-34 192
q-64 -128 -120 -169t-136 -41q-107 0 -181 92t-75 198q-1 104 31 180t67 122t117 94t124 66t103 42t70 28v92zM304 1487q-48 0 -48 -67h-154q0 114 57 193q57 80 163 80q58 0 145 -43t137 -43t50 69h154q0 -162 -98 -237q-51 -39 -116 -39q-66 0 -154 44t-136 43z" />
    <glyph glyph-name="adieresis" unicode="&#xe4;" horiz-adv-x="922" 
d="M311 351q0 -159 128 -159q59 0 115 78q10 14 13 16v354q-16 -11 -53 -34q-37 -24 -59 -38q-70 -46 -107 -97t-37 -120zM567 896q0 204 -116 204q-61 0 -91 -29q-48 -48 -49 -175h-256q2 184 103 293q100 109 280 109t282 -110t103 -292v-576q0 -200 33 -320h-255l-34 192
q-64 -128 -120 -169t-136 -41q-107 0 -181 92t-75 198q-1 104 31 180t67 122t117 94t124 66t103 42t70 28v92zM520 1656h256v-256h-256v256zM136 1656h256v-256h-256v256z" />
    <glyph glyph-name="aring" unicode="&#xe5;" horiz-adv-x="922" 
d="M311 351q0 -159 128 -159q59 0 115 78q10 14 13 16v354q-16 -11 -53 -34q-37 -24 -59 -38q-70 -46 -107 -97t-37 -120zM567 896q0 204 -116 204q-61 0 -91 -29q-48 -48 -49 -175h-256q2 184 103 293q100 109 280 109t282 -110t103 -292v-576q0 -200 33 -320h-255l-34 192
q-64 -128 -120 -169t-136 -41q-107 0 -181 92t-75 198q-1 104 31 180t67 122t117 94t124 66t103 42t70 28v92zM200 1656q0 116 70 186t186 70t186 -70t70 -186t-70 -186t-187 -70t-186 70t-69 186zM584 1656q0 60 -34 94t-95 34q-59 0 -93 -34t-34 -94t34 -94t93 -34
q61 0 95 34t34 94z" />
    <glyph glyph-name="ae" unicode="&#xe6;" horiz-adv-x="1465" 
d="M1120 923q0 61 -31 113t-103 52t-98 -82q-24 -70 -24 -215v-27h117q73 11 98 29q25 19 33 45t8 85zM609 896q0 204 -116 204q-61 0 -91 -29q-48 -48 -49 -175h-256q1 184 103 293t281 109q95 0 163 -40t93 -112q39 68 103 110t152 42q178 0 270 -113t92 -305
q0 -115 -69 -176t-277 -75q-29 -3 -72 -5t-72 -5v-43q0 -160 3 -194q14 -188 114 -197h11q71 0 93 60q23 59 23 179v24h255q1 -228 -87 -347t-285 -119q-224 0 -307 197q-61 -88 -113 -128q-91 -69 -208 -69t-191 92t-75 209q0 189 120 287q76 62 168 94q92 31 224 61v171z
M353 351q0 -159 128 -159q84 0 171 99q-39 142 -43 289q-190 -51 -235 -136q-21 -40 -21 -93z" />
    <glyph glyph-name="ccedilla" unicode="&#xe7;" horiz-adv-x="901" 
d="M605 -321q0 28 -22 46q-23 17 -37 26t-36 19t-35 14q-13 6 -35 14t-27 9v179q-160 21 -233 147q-54 93 -67 196q-14 102 -17 165t-3 146t3 146q2 63 12 135t26 124q80 253 327 253q232 0 316 -121t84 -345h-256q0 148 -32 208q-32 59 -89 59q-58 0 -86 -41t-36 -86
q-7 -46 -10 -74q-6 -56 -4 -135q1 -80 1 -123l-2 -122q0 -187 26 -244t53 -70q26 -12 52 -12t46 8t34 20t23 34q18 46 21 91t3 103h256q0 -428 -320 -463v-114q124 -35 165 -63q42 -29 66 -56t25 -69q0 -41 -11 -71q-10 -30 -28 -50t-46 -34q-54 -27 -120 -34
q-65 -7 -158 -7h-85v128l108 -2q148 0 148 66z" />
    <glyph glyph-name="egrave" unicode="&#xe8;" horiz-adv-x="910" 
d="M605 768q0 156 -17 218q-28 102 -108 102q-124 0 -129 -205q-2 -65 -2 -88v-27h256zM349 576q0 -158 3 -196q23 -182 125 -188q65 0 92 41t32 90t5 125h255q0 -230 -91 -348q-92 -118 -298 -118t-293 158q-55 99 -70 230q-16 131 -16 263q-1 132 5 205q6 72 20 148
t42 129t68 97q42 44 104 64q62 22 145 22t145 -22t104 -64q85 -89 110 -225q25 -135 25 -317v-30h-512v-64zM157 1784h256l128 -384h-128z" />
    <glyph glyph-name="eacute" unicode="&#xe9;" horiz-adv-x="910" 
d="M605 768q0 156 -17 218q-28 102 -108 102q-124 0 -129 -205q-2 -65 -2 -88v-27h256zM349 576q0 -158 3 -196q23 -182 125 -188q65 0 92 41t32 90t5 125h255q0 -230 -91 -348q-92 -118 -298 -118t-293 158q-55 99 -70 230q-16 131 -16 263q-1 132 5 205q6 72 20 148
t42 129t68 97q42 44 104 64q62 22 145 22t145 -22t104 -64q85 -89 110 -225q25 -135 25 -317v-30h-512v-64zM541 1400h-128l128 384h256z" />
    <glyph glyph-name="ecircumflex" unicode="&#xea;" horiz-adv-x="910" 
d="M605 768q0 156 -17 218q-28 102 -108 102q-124 0 -129 -205q-2 -65 -2 -88v-27h256zM349 576q0 -158 3 -196q23 -182 125 -188q65 0 92 41t32 90t5 125h255q0 -230 -91 -348q-92 -118 -298 -118t-293 158q-55 99 -70 230q-16 131 -16 263q-1 132 5 205q6 72 20 148
t42 129t68 97q42 44 104 64q62 22 145 22t145 -22t104 -64q85 -89 110 -225q25 -135 25 -317v-30h-512v-64zM477 1656l-128 -256h-192l192 384h256l192 -384h-192z" />
    <glyph glyph-name="edieresis" unicode="&#xeb;" horiz-adv-x="910" 
d="M605 768q0 156 -17 218q-28 102 -108 102q-124 0 -129 -205q-2 -65 -2 -88v-27h256zM349 576q0 -158 3 -196q23 -182 125 -188q65 0 92 41t32 90t5 125h255q0 -230 -91 -348q-92 -118 -298 -118t-293 158q-55 99 -70 230q-16 131 -16 263q-1 132 5 205q6 72 20 148
t42 129t68 97q42 44 104 64q62 22 145 22t145 -22t104 -64q85 -89 110 -225q25 -135 25 -317v-30h-512v-64zM541 1656h256v-256h-256v256zM157 1656h256v-256h-256v256z" />
    <glyph glyph-name="igrave" unicode="&#xec;" horiz-adv-x="512" 
d="M128 1280h256v-1280h-256v1280zM-64 1784h256l128 -384h-128z" />
    <glyph glyph-name="iacute" unicode="&#xed;" horiz-adv-x="512" 
d="M128 1280h256v-1280h-256v1280zM320 1400h-128l128 384h256z" />
    <glyph glyph-name="icircumflex" unicode="&#xee;" horiz-adv-x="512" 
d="M128 1280h256v-1280h-256v1280zM256 1656l-128 -256h-192l192 384h256l192 -384h-192z" />
    <glyph glyph-name="idieresis" unicode="&#xef;" horiz-adv-x="512" 
d="M128 1280h256v-1280h-256v1280zM320 1656h256v-256h-256v256zM-64 1656h256v-256h-256v256z" />
    <glyph glyph-name="eth" unicode="&#xf0;" horiz-adv-x="1152" 
d="M384 704v-6q0 -255 18 -315q18 -61 39 -105q39 -87 142 -86q103 0 144 96t41 224v466q-75 110 -192 110q-192 0 -192 -384zM192 1600v210q242 0 407 -44t261 -155l228 53v-128l-156 -36q92 -189 92 -540v-384q0 -252 -106 -418q-52 -82 -140 -129t-198 -47t-190 34
t-129 92q-132 155 -132 532q1 490 227 619q68 39 157 39t161 -41t94 -105q0 193 -69 294l-443 -102v128l320 74q-122 54 -384 54z" />
    <glyph glyph-name="ntilde" unicode="&#xf1;" 
d="M706 1298q77 0 128 -60t51 -147v-1091h-256v960q0 68 -19 98q-18 30 -64 30t-83 -15t-90 -60v-1013h-256v1280h256v-138q57 52 93 80t100 52t140 24zM634 1400q-60 0 -148 44t-136 43q-48 0 -48 -67h-154q0 116 58 194t162 79q58 0 145 -43t137 -43t50 69h154
q0 -116 -58 -196t-162 -80z" />
    <glyph glyph-name="ograve" unicode="&#xf2;" horiz-adv-x="954" 
d="M477 1088q-27 0 -47 -8t-34 -20t-23 -34q-18 -46 -21 -91t-3 -103v-384q-1 -120 7 -146t17 -48t23 -34t34 -20t47 -8t47 8t34 20t23 34q18 46 21 91t3 103v384q1 120 -7 146t-17 48t-23 34t-34 20t-47 8zM477 -18q-206 0 -295 120t-89 346v384q0 226 89 346t295 120
t295 -120t89 -346v-384q0 -226 -89 -346t-295 -120zM157 1784h256l128 -384h-128z" />
    <glyph glyph-name="oacute" unicode="&#xf3;" horiz-adv-x="954" 
d="M477 1088q-27 0 -47 -8t-34 -20t-23 -34q-18 -46 -21 -91t-3 -103v-384q-1 -120 7 -146t17 -48t23 -34t34 -20t47 -8t47 8t34 20t23 34q18 46 21 91t3 103v384q1 120 -7 146t-17 48t-23 34t-34 20t-47 8zM477 -18q-206 0 -295 120t-89 346v384q0 226 89 346t295 120
t295 -120t89 -346v-384q0 -226 -89 -346t-295 -120zM541 1400h-128l128 384h256z" />
    <glyph glyph-name="ocircumflex" unicode="&#xf4;" horiz-adv-x="954" 
d="M477 1088q-27 0 -47 -8t-34 -20t-23 -34q-18 -46 -21 -91t-3 -103v-384q-1 -120 7 -146t17 -48t23 -34t34 -20t47 -8t47 8t34 20t23 34q18 46 21 91t3 103v384q1 120 -7 146t-17 48t-23 34t-34 20t-47 8zM477 -18q-206 0 -295 120t-89 346v384q0 226 89 346t295 120
t295 -120t89 -346v-384q0 -226 -89 -346t-295 -120zM477 1656l-128 -256h-192l192 384h256l192 -384h-192z" />
    <glyph glyph-name="otilde" unicode="&#xf5;" horiz-adv-x="954" 
d="M477 1088q-27 0 -47 -8t-34 -20t-23 -34q-18 -46 -21 -91t-3 -103v-384q-1 -120 7 -146t17 -48t23 -34t34 -20t47 -8t47 8t34 20t23 34q18 46 21 91t3 103v384q1 120 -7 146t-17 48t-23 34t-34 20t-47 8zM477 -18q-206 0 -295 120t-89 346v384q0 226 89 346t295 120
t295 -120t89 -346v-384q0 -226 -89 -346t-295 -120zM610 1400q-60 0 -148 44t-136 43q-48 0 -48 -67h-154q0 116 58 194t162 79q58 0 145 -43t137 -43t50 69h154q0 -116 -58 -196t-162 -80z" />
    <glyph glyph-name="odieresis" unicode="&#xf6;" horiz-adv-x="954" 
d="M477 1088q-27 0 -47 -8t-34 -20t-23 -34q-18 -46 -21 -91t-3 -103v-384q-1 -120 7 -146t17 -48t23 -34t34 -20t47 -8t47 8t34 20t23 34q18 46 21 91t3 103v384q1 120 -7 146t-17 48t-23 34t-34 20t-47 8zM477 -18q-206 0 -295 120t-89 346v384q0 226 89 346t295 120
t295 -120t89 -346v-384q0 -226 -89 -346t-295 -120zM541 1656h256v-256h-256v256zM157 1656h256v-256h-256v256z" />
    <glyph glyph-name="divide" unicode="&#xf7;" horiz-adv-x="640" 
d="M192 489h256v-256h-256v256zM192 1135h256v-256h-256v256zM0 768h640v-192h-640v192z" />
    <glyph glyph-name="oslash" unicode="&#xf8;" horiz-adv-x="1024" 
d="M502 192q38 0 58 8t34 20t22 34q18 46 21 91t3 103v355l-209 -583q33 -28 71 -28zM128 448v384q0 346 204 434q76 32 181 32q106 0 194 -40l82 233l87 -29l-92 -257q112 -112 112 -373v-384q0 -226 -89 -346t-295 -120q-94 0 -158 24l-82 -228l-76 26l84 239
q-152 98 -152 405zM384 832v-486l238 669q-28 73 -109 73t-103 -57q-23 -57 -25 -110q-1 -52 -1 -89z" />
    <glyph glyph-name="ugrave" unicode="&#xf9;" 
d="M107 189v1091h256v-1013q1 -40 25 -65t54 -25t50 5q20 6 40 18t30 20q12 8 32 25q20 18 25 22v1013h256v-1280h-256v138q-119 -103 -159 -120q-86 -36 -169 -36q-82 0 -133 60t-51 147zM171 1784h256l128 -384h-128z" />
    <glyph glyph-name="uacute" unicode="&#xfa;" 
d="M107 189v1091h256v-1013q1 -40 25 -65t54 -25t50 5q20 6 40 18t30 20q12 8 32 25q20 18 25 22v1013h256v-1280h-256v138q-119 -103 -159 -120q-86 -36 -169 -36q-82 0 -133 60t-51 147zM555 1400h-128l128 384h256z" />
    <glyph glyph-name="ucircumflex" unicode="&#xfb;" 
d="M107 189v1091h256v-1013q1 -40 25 -65t54 -25t50 5q20 6 40 18t30 20q12 8 32 25q20 18 25 22v1013h256v-1280h-256v138q-119 -103 -159 -120q-86 -36 -169 -36q-82 0 -133 60t-51 147zM491 1656l-128 -256h-192l192 384h256l192 -384h-192z" />
    <glyph glyph-name="udieresis" unicode="&#xfc;" 
d="M107 189v1091h256v-1013q1 -40 25 -65t54 -25t50 5q20 6 40 18t30 20q12 8 32 25q20 18 25 22v1013h256v-1280h-256v138q-119 -103 -159 -120q-86 -36 -169 -36q-82 0 -133 60t-51 147zM555 1656h256v-256h-256v256zM171 1656h256v-256h-256v256z" />
    <glyph glyph-name="yacute" unicode="&#xfd;" horiz-adv-x="842" 
d="M74 -128q104 0 165 46t61 140l-290 1222h256q149 -823 161 -896q34 218 87 506q54 289 72 390h256l-320 -1344q-32 -142 -142 -199t-306 -57v192zM490 1400h-128l128 384h256z" />
    <glyph glyph-name="thorn" unicode="&#xfe;" horiz-adv-x="1056" 
d="M654 1298q55 0 106 -24t84 -56t56 -94q43 -114 51 -237q9 -123 9 -252q0 -127 -8 -207t-30 -164t-56 -144t-92 -100q-58 -38 -136 -38q-76 0 -136 37t-118 97v-526h-256v2201h256v-638q109 115 178 135q37 10 92 10zM706 823q0 152 -33 208q-33 57 -97 57
q-106 0 -192 -51v-805q99 -40 192 -40q82 0 108 116q22 95 22 238v277z" />
    <glyph glyph-name="ydieresis" unicode="&#xff;" horiz-adv-x="842" 
d="M74 -128q104 0 165 46t61 140l-290 1222h256q149 -823 161 -896q34 218 87 506q54 289 72 390h256l-320 -1344q-32 -142 -142 -199t-306 -57v192zM490 1656h256v-256h-256v256zM106 1656h256v-256h-256v256z" />
    <glyph glyph-name="Amacron" unicode="&#x100;" horiz-adv-x="1038" 
d="M647 640l-128 768l-128 -768h256zM359 448l-96 -448h-256l384 1792h256l384 -1792h-256l-96 448h-320zM302 2064h434v-152h-434v152z" />
    <glyph glyph-name="amacron" unicode="&#x101;" horiz-adv-x="922" 
d="M311 351q0 -159 128 -159q59 0 115 78q10 14 13 16v354q-16 -11 -53 -34q-37 -24 -59 -38q-70 -46 -107 -97t-37 -120zM567 896q0 204 -116 204q-61 0 -91 -29q-48 -48 -49 -175h-256q2 184 103 293q100 109 280 109t282 -110t103 -292v-576q0 -200 33 -320h-255l-34 192
q-64 -128 -120 -169t-136 -41q-107 0 -181 92t-75 198q-1 104 31 180t67 122t117 94t124 66t103 42t70 28v92zM238 1552h434v-152h-434v152z" />
    <glyph glyph-name="Abreve" unicode="&#x102;" horiz-adv-x="1038" 
d="M647 640l-128 768l-128 -768h256zM359 448l-96 -448h-256l384 1792h256l384 -1792h-256l-96 448h-320zM839 2296q1 -200 -69 -292t-250 -92t-250 93t-71 291h192q1 -102 25 -147t103 -45t103 46t25 146h192z" />
    <glyph glyph-name="abreve" unicode="&#x103;" horiz-adv-x="922" 
d="M311 351q0 -159 128 -159q59 0 115 78q10 14 13 16v354q-16 -11 -53 -34q-37 -24 -59 -38q-70 -46 -107 -97t-37 -120zM567 896q0 204 -116 204q-61 0 -91 -29q-48 -48 -49 -175h-256q2 184 103 293q100 109 280 109t282 -110t103 -292v-576q0 -200 33 -320h-255l-34 192
q-64 -128 -120 -169t-136 -41q-107 0 -181 92t-75 198q-1 104 31 180t67 122t117 94t124 66t103 42t70 28v92zM776 1784q0 -194 -68 -289t-251 -95t-252 95t-69 289h192q0 -125 32 -159q32 -33 81 -33q47 0 71 9q44 17 58 62t14 121h192z" />
    <glyph glyph-name="Aogonek" unicode="&#x104;" horiz-adv-x="1038" 
d="M647 640l-128 768l-128 -768h256zM969 -522h-45q-154 0 -194 6t-70 14q-30 6 -48 16q-51 27 -71 63t-20 92q0 111 83 209q83 97 173 122h-2l-96 448h-320l-96 -448h-256l384 1792h256l384 -1792h-126q-9 -13 -29 -36t-36 -43t-36 -46q-91 -118 -91 -201q0 -74 144 -74
l112 6v-128z" />
    <glyph glyph-name="aogonek" unicode="&#x105;" horiz-adv-x="922" 
d="M311 351q0 -159 128 -159q59 0 115 78q10 14 13 16v354q-16 -11 -53 -34q-37 -24 -59 -38q-70 -46 -107 -97t-37 -120zM567 896q0 204 -116 204q-61 0 -91 -29q-48 -48 -49 -175h-256q2 184 103 293q100 109 280 109t282 -110t103 -292v-576q0 -200 33 -320h-126
q-162 -192 -185 -276q-7 -26 -7 -50q0 -74 144 -74l112 6v-128h-46q-153 0 -193 6q-41 6 -71 14q-30 6 -48 16q-51 28 -71 64q-19 37 -19 92q0 54 24 110q44 104 142 176q44 32 89 44l-34 192q-64 -128 -120 -169t-136 -41q-107 0 -181 92t-75 198q-1 104 31 180t67 122
t117 94t124 66t103 42t70 28v92z" />
    <glyph glyph-name="Cacute" unicode="&#x106;" horiz-adv-x="1107" 
d="M1065 576q1 -594 -467 -594q-232 0 -350 120q-152 156 -152 539v511q0 383 152 538q118 120 340 120q263 0 370 -157t107 -437h-256q0 146 -7 184t-15 66t-19 46q-54 88 -178 88q-176 0 -216 -156q-22 -84 -22 -228v-640q0 -212 63 -298t173 -86q196 0 217 268
q4 50 4 116v64h256v-64zM644 1912h-128l128 384h256z" />
    <glyph glyph-name="cacute" unicode="&#x107;" horiz-adv-x="901" 
d="M478 192q26 0 46 8t34 20t23 34q18 46 21 91t3 103h256q0 -224 -90 -345t-297 -121t-294 151q-54 93 -67 196q-14 102 -17 165t-3 146t3 146q2 63 12 135t26 124q80 253 327 253q232 0 316 -121t84 -345h-256q0 148 -32 208q-32 59 -89 59q-58 0 -86 -41t-36 -86
q-7 -46 -10 -74q-6 -56 -4 -135q1 -80 1 -123l-2 -122q0 -187 26 -244t53 -70q26 -12 52 -12zM541 1400h-128l128 384h256z" />
    <glyph glyph-name="Ccircumflex" unicode="&#x108;" horiz-adv-x="1107" 
d="M1065 576q1 -594 -467 -594q-232 0 -350 120q-152 156 -152 539v511q0 383 152 538q118 120 340 120q263 0 370 -157t107 -437h-256q0 146 -7 184t-15 66t-19 46q-54 88 -178 88q-176 0 -216 -156q-22 -84 -22 -228v-640q0 -212 63 -298t173 -86q196 0 217 268
q4 50 4 116v64h256v-64zM580 2168l-128 -256h-192l192 384h256l192 -384h-192z" />
    <glyph glyph-name="ccircumflex" unicode="&#x109;" horiz-adv-x="901" 
d="M478 192q26 0 46 8t34 20t23 34q18 46 21 91t3 103h256q0 -224 -90 -345t-297 -121t-294 151q-54 93 -67 196q-14 102 -17 165t-3 146t3 146q2 63 12 135t26 124q80 253 327 253q232 0 316 -121t84 -345h-256q0 148 -32 208q-32 59 -89 59q-58 0 -86 -41t-36 -86
q-7 -46 -10 -74q-6 -56 -4 -135q1 -80 1 -123l-2 -122q0 -187 26 -244t53 -70q26 -12 52 -12zM477 1656l-128 -256h-192l192 384h256l192 -384h-192z" />
    <glyph glyph-name="Cdotaccent" unicode="&#x10a;" horiz-adv-x="1107" 
d="M1065 576q1 -594 -467 -594q-232 0 -350 120q-152 156 -152 539v511q0 383 152 538q118 120 340 120q263 0 370 -157t107 -437h-256q0 146 -7 184t-15 66t-19 46q-54 88 -178 88q-176 0 -216 -156q-22 -84 -22 -228v-640q0 -212 63 -298t173 -86q196 0 217 268
q4 50 4 116v64h256v-64zM452 2168h256v-256h-256v256z" />
    <glyph glyph-name="cdotaccent" unicode="&#x10b;" horiz-adv-x="901" 
d="M478 192q26 0 46 8t34 20t23 34q18 46 21 91t3 103h256q0 -224 -90 -345t-297 -121t-294 151q-54 93 -67 196q-14 102 -17 165t-3 146t3 146q2 63 12 135t26 124q80 253 327 253q232 0 316 -121t84 -345h-256q0 148 -32 208q-32 59 -89 59q-58 0 -86 -41t-36 -86
q-7 -46 -10 -74q-6 -56 -4 -135q1 -80 1 -123l-2 -122q0 -187 26 -244t53 -70q26 -12 52 -12zM349 1656h256v-256h-256v256z" />
    <glyph glyph-name="Ccaron" unicode="&#x10c;" horiz-adv-x="1107" 
d="M1065 576q1 -594 -467 -594q-232 0 -350 120q-152 156 -152 539v511q0 383 152 538q118 120 340 120q263 0 370 -157t107 -437h-256q0 146 -7 184t-15 66t-19 46q-54 88 -178 88q-176 0 -216 -156q-22 -84 -22 -228v-640q0 -212 63 -298t173 -86q196 0 217 268
q4 50 4 116v64h256v-64zM708 2296h192l-192 -384h-256l-192 384h192l128 -256z" />
    <glyph glyph-name="ccaron" unicode="&#x10d;" horiz-adv-x="901" 
d="M478 192q26 0 46 8t34 20t23 34q18 46 21 91t3 103h256q0 -224 -90 -345t-297 -121t-294 151q-54 93 -67 196q-14 102 -17 165t-3 146t3 146q2 63 12 135t26 124q80 253 327 253q232 0 316 -121t84 -345h-256q0 148 -32 208q-32 59 -89 59q-58 0 -86 -41t-36 -86
q-7 -46 -10 -74q-6 -56 -4 -135q1 -80 1 -123l-2 -122q0 -187 26 -244t53 -70q26 -12 52 -12zM605 1784h192l-192 -384h-256l-192 384h192l128 -256z" />
    <glyph glyph-name="Dcaron" unicode="&#x10e;" horiz-adv-x="1133" 
d="M781 1216q0 158 -8 195t-17 65q-8 28 -22 45q-39 47 -88 63t-126 16h-136v-1408h141q146 0 198 69t55 184q4 115 4 140q-1 24 -1 29v602zM1037 576q1 -296 -117 -436t-397 -140h-395v1792h397q281 0 397 -115t115 -397v-704zM710 2296h192l-192 -384h-256l-192 384h192
l128 -256z" />
    <glyph glyph-name="dcaron" unicode="&#x10f;" horiz-adv-x="1042" 
d="M553 1256q58 -42 116 -103v638h256v-1791h-256v116q-58 -60 -118 -97t-136 -37q-75 0 -133 38q-104 68 -147 223q-42 156 -42 334v12q0 317 18 393t41 140t56 96t84 56t127 24t134 -42zM477 1088q-50 0 -70 -24t-30 -40q-29 -51 -29 -208l1 -111q0 -44 -1 -105v-105
q0 -45 4 -77t8 -69q8 -61 37 -109t80 -48q93 0 192 40v805q-86 51 -192 51zM1078 1791h256q0 -250 -6 -310q-12 -114 -54 -158q-41 -44 -132 -44l-64 128q68 0 98 30t30 98h-128v256z" />
    <glyph glyph-name="Dcroat" unicode="&#x110;" horiz-adv-x="1152" 
d="M768 1216q0 158 -8 195t-17 65t-23 45q-39 47 -87 63q-49 16 -126 16h-123v-596h144v-152h-144v-660h128q146 0 198 69t55 184q4 115 4 140q-1 24 -1 29v602zM1024 576q0 -296 -118 -436t-396 -140h-382v852h-94v152h94v788h384q280 0 396 -115t116 -397v-704z" />
    <glyph glyph-name="dcroat" unicode="&#x111;" horiz-adv-x="1056" 
d="M480 1088q-50 0 -70 -24t-30 -40q-29 -51 -29 -208l1 -111q0 -44 -1 -105t-1 -105q0 -45 4 -77t9 -69q8 -61 37 -109t80 -48q93 0 192 40v805q-86 51 -192 51zM556 1256q58 -42 116 -103v347h-260v138h260v153h256v-153h128v-138h-128v-1500h-256v116q-58 -60 -118 -97
t-136 -37t-134 38q-104 68 -146 223q-42 156 -42 334v12q0 317 18 393t41 140t56 96t84 56t127 24t134 -42z" />
    <glyph glyph-name="Emacron" unicode="&#x112;" horiz-adv-x="861" 
d="M704 832h-320v-640h448v-192h-704v1792h704v-192h-448v-576h320v-192zM263 2064h434v-152h-434v152z" />
    <glyph glyph-name="emacron" unicode="&#x113;" horiz-adv-x="910" 
d="M605 768q0 156 -17 218q-28 102 -108 102q-124 0 -129 -205q-2 -65 -2 -88v-27h256zM349 576q0 -158 3 -196q23 -182 125 -188q65 0 92 41t32 90t5 125h255q0 -230 -91 -348q-92 -118 -298 -118t-293 158q-55 99 -70 230q-16 131 -16 263q-1 132 5 205q6 72 20 148
t42 129t68 97q42 44 104 64q62 22 145 22t145 -22t104 -64q85 -89 110 -225q25 -135 25 -317v-30h-512v-64zM260 1552h434v-152h-434v152z" />
    <glyph glyph-name="Edotaccent" unicode="&#x116;" horiz-adv-x="861" 
d="M704 832h-320v-640h448v-192h-704v1792h704v-192h-448v-576h320v-192zM352 2168h256v-256h-256v256z" />
    <glyph glyph-name="edotaccent" unicode="&#x117;" horiz-adv-x="910" 
d="M605 768q0 156 -17 218q-28 102 -108 102q-124 0 -129 -205q-2 -65 -2 -88v-27h256zM349 576q0 -158 3 -196q23 -182 125 -188q65 0 92 41t32 90t5 125h255q0 -230 -91 -348q-92 -118 -298 -118t-293 158q-55 99 -70 230q-16 131 -16 263q-1 132 5 205q6 72 20 148
t42 129t68 97q42 44 104 64q62 22 145 22t145 -22t104 -64q85 -89 110 -225q25 -135 25 -317v-30h-512v-64zM349 1656h256v-256h-256v256z" />
    <glyph glyph-name="Eogonek" unicode="&#x118;" horiz-adv-x="861" 
d="M672 -505h-45q-154 1 -194 7t-70 12q-31 6 -49 17q-51 27 -70 63q-20 36 -20 92t24 112q44 104 142 174q23 16 46 28h-308v1792h704v-192h-448v-576h320v-192h-320v-640h448v-192h-238q-7 -8 -21 -25t-30 -37t-36 -46q-91 -118 -91 -201q0 -74 144 -74l112 6v-128z" />
    <glyph glyph-name="eogonek" unicode="&#x119;" horiz-adv-x="910" 
d="M605 768q0 156 -17 218q-28 102 -108 102q-124 0 -129 -205q-2 -65 -2 -88v-27h256zM605 -523h-45q-154 1 -194 7t-70 12t-48 17q-51 27 -71 63t-20 92q-1 56 23 112q44 104 144 174q32 23 64 36q-142 30 -209 150q-55 99 -70 230q-16 131 -16 263q-1 132 5 205
q6 72 20 148t42 129t68 97q42 44 104 64q62 22 145 22t145 -22t104 -64q85 -89 110 -225q25 -135 25 -317v-30h-512v-64q0 -158 3 -196q23 -182 125 -188q65 0 92 41t32 90t5 125h255q0 -230 -85 -340t-247 -124q-9 -12 -28 -34q-19 -24 -37 -46q-114 -139 -115 -231
q0 -74 144 -74l112 6v-128z" />
    <glyph glyph-name="Ecaron" unicode="&#x11a;" horiz-adv-x="861" 
d="M704 832h-320v-640h448v-192h-704v1792h704v-192h-448v-576h320v-192zM608 2296h192l-192 -384h-256l-192 384h192l128 -256z" />
    <glyph glyph-name="ecaron" unicode="&#x11b;" horiz-adv-x="910" 
d="M605 768q0 156 -17 218q-28 102 -108 102q-124 0 -129 -205q-2 -65 -2 -88v-27h256zM349 576q0 -158 3 -196q23 -182 125 -188q65 0 92 41t32 90t5 125h255q0 -230 -91 -348q-92 -118 -298 -118t-293 158q-55 99 -70 230q-16 131 -16 263q-1 132 5 205q6 72 20 148
t42 129t68 97q42 44 104 64q62 22 145 22t145 -22t104 -64q85 -89 110 -225q25 -135 25 -317v-30h-512v-64zM605 1784h192l-192 -384h-256l-192 384h192l128 -256z" />
    <glyph glyph-name="Gcircumflex" unicode="&#x11c;" horiz-adv-x="1199" 
d="M613 192q59 0 106 25q87 46 116 157t29 266v64h-256v190h512v-894h-192l-64 192q-75 -210 -256 -210q-349 0 -452 283q-60 164 -60 433v454q0 658 522 658q263 0 375 -158t112 -436h-256q-1 171 -17 222q-31 95 -80 129q-50 33 -131 33q-158 0 -214 -106
q-55 -106 -55 -278v-576q0 -217 44 -310q44 -94 116 -122q42 -16 101 -16zM608 2168l-128 -256h-192l192 384h256l192 -384h-192z" />
    <glyph glyph-name="gcircumflex" unicode="&#x11d;" horiz-adv-x="968" 
d="M466 560q160 0 160 280t-160 280q-94 0 -127 -89t-33 -199q0 -272 160 -272zM754 -99q0 18 -4 33q-14 76 -201 98l-211 25q-38 -28 -66 -81q-28 -52 -28 -112t194 -60l92 2q224 0 224 95zM82 832q0 282 172 404q88 62 217 62q127 0 205 -70q34 -30 66 -81q81 151 236 151
v-210q-96 0 -160 -64q32 -94 32 -210t-40 -219t-130 -165q-88 -62 -214 -62q-37 0 -81 7l-48 8q-2 -5 -10 -17q-9 -12 -17 -28q-8 -15 -8 -39t25 -42q25 -19 69 -27t84 -12t91 -6q50 -2 88 -8q39 -6 83 -16q112 -26 174 -85q62 -58 62 -167q0 -200 -189 -276
q-107 -44 -273 -43q-166 0 -217 8q-51 9 -96 17q-71 13 -128 53t-57 125t54 156t138 113q-52 15 -90 43t-38 75t20 84q20 35 26 47t22 32q14 20 20 28t22 28t18 22q-128 152 -128 384zM498 1656l-128 -256h-192l192 384h256l192 -384h-192z" />
    <glyph glyph-name="Gbreve" unicode="&#x11e;" horiz-adv-x="1199" 
d="M613 192q59 0 106 25q87 46 116 157t29 266v64h-256v190h512v-894h-192l-64 192q-75 -210 -256 -210q-349 0 -452 283q-60 164 -60 433v454q0 658 522 658q263 0 375 -158t112 -436h-256q-1 171 -17 222q-31 95 -80 129q-50 33 -131 33q-158 0 -214 -106
q-55 -106 -55 -278v-576q0 -217 44 -310q44 -94 116 -122q42 -16 101 -16zM928 2296q0 -200 -70 -292t-249 -92q-181 0 -251 93t-70 291h192q0 -102 24 -147t104 -45t104 46t24 146h192z" />
    <glyph glyph-name="gbreve" unicode="&#x11f;" horiz-adv-x="968" 
d="M466 560q160 0 160 280t-160 280q-94 0 -127 -89t-33 -199q0 -272 160 -272zM754 -99q0 18 -4 33q-14 76 -201 98l-211 25q-38 -28 -66 -81q-28 -52 -28 -112t194 -60l92 2q224 0 224 95zM82 832q0 282 172 404q88 62 217 62q127 0 205 -70q34 -30 66 -81q81 151 236 151
v-210q-96 0 -160 -64q32 -94 32 -210t-40 -219t-130 -165q-88 -62 -214 -62q-37 0 -81 7l-48 8q-2 -5 -10 -17q-9 -12 -17 -28q-8 -15 -8 -39t25 -42q25 -19 69 -27t84 -12t91 -6q50 -2 88 -8q39 -6 83 -16q112 -26 174 -85q62 -58 62 -167q0 -200 -189 -276
q-107 -44 -273 -43q-166 0 -217 8q-51 9 -96 17q-71 13 -128 53t-57 125t54 156t138 113q-52 15 -90 43t-38 75t20 84q20 35 26 47t22 32q14 20 20 28t22 28t18 22q-128 152 -128 384zM818 1784q0 -200 -70 -292t-249 -92q-181 0 -251 93t-70 291h192q0 -102 24 -147
t104 -45t104 46t24 146h192z" />
    <glyph glyph-name="Gdotaccent" unicode="&#x120;" horiz-adv-x="1199" 
d="M613 192q59 0 106 25q87 46 116 157t29 266v64h-256v190h512v-894h-192l-64 192q-75 -210 -256 -210q-349 0 -452 283q-60 164 -60 433v454q0 658 522 658q263 0 375 -158t112 -436h-256q-1 171 -17 222q-31 95 -80 129q-50 33 -131 33q-158 0 -214 -106
q-55 -106 -55 -278v-576q0 -217 44 -310q44 -94 116 -122q42 -16 101 -16zM480 2168h256v-256h-256v256z" />
    <glyph glyph-name="gdotaccent" unicode="&#x121;" horiz-adv-x="968" 
d="M466 560q160 0 160 280t-160 280q-94 0 -127 -89t-33 -199q0 -272 160 -272zM754 -99q0 18 -4 33q-14 76 -201 98l-211 25q-38 -28 -66 -81q-28 -52 -28 -112t194 -60l92 2q224 0 224 95zM82 832q0 282 172 404q88 62 217 62q127 0 205 -70q34 -30 66 -81q81 151 236 151
v-210q-96 0 -160 -64q32 -94 32 -210t-40 -219t-130 -165q-88 -62 -214 -62q-37 0 -81 7l-48 8q-2 -5 -10 -17q-9 -12 -17 -28q-8 -15 -8 -39t25 -42q25 -19 69 -27t84 -12t91 -6q50 -2 88 -8q39 -6 83 -16q112 -26 174 -85q62 -58 62 -167q0 -200 -189 -276
q-107 -44 -273 -43q-166 0 -217 8q-51 9 -96 17q-71 13 -128 53t-57 125t54 156t138 113q-52 15 -90 43t-38 75t20 84q20 35 26 47t22 32q14 20 20 28t22 28t18 22q-128 152 -128 384zM370 1656h256v-256h-256v256z" />
    <glyph glyph-name="Gcommaaccent" unicode="&#x122;" horiz-adv-x="1199" 
d="M613 192q59 0 106 25q87 46 116 157t29 266v64h-256v190h512v-894h-192l-64 192q-75 -210 -256 -210q-349 0 -452 283q-60 164 -60 433v454q0 658 522 658q263 0 375 -158t112 -436h-256q-1 171 -17 222q-31 95 -80 129q-50 33 -131 33q-158 0 -214 -106
q-55 -106 -55 -278v-576q0 -217 44 -310q44 -94 116 -122q42 -16 101 -16zM480 -120h256q0 -250 -6 -310q-12 -114 -54 -158q-41 -44 -132 -44l-64 128q68 0 98 30t30 98h-128v256z" />
    <glyph glyph-name="gcommaaccent" unicode="&#x123;" horiz-adv-x="973" 
d="M481 560q160 0 160 280q-1 280 -161 280q-94 0 -126 -89q-33 -89 -33 -199q0 -272 160 -272zM769 -99q0 18 -4 33q-14 76 -201 98l-211 25q-39 -28 -67 -81q-28 -52 -27 -112q0 -60 194 -60l92 2q224 0 224 95zM97 832q1 282 173 404q88 62 216 62t206 -70q34 -30 65 -81
q81 151 236 151v-210q-96 0 -160 -64q32 -94 32 -210q-1 -116 -41 -219t-128 -165t-215 -62q-37 0 -81 7h-48q-3 -6 -19 -28t-16 -51q-1 -30 37 -50t98 -30t131 -16q72 -8 144 -24q71 -16 131 -40q60 -25 98 -76q38 -50 37 -122t-25 -127q-86 -194 -423 -194q-180 0 -231 8
q-51 9 -96 17q-71 13 -128 53t-57 125q-1 85 53 156t139 113q-52 15 -90 43t-38 75t20 84q21 35 27 47t21 32l21 28l21 28q16 20 18 22q-128 152 -128 384zM627 1377h-256q0 31 -1 81q-2 50 -2 82t1 76t5 74t13 64q13 54 55 95q42 40 121 40l64 -128q-69 0 -99 -30t-29 -98
h128v-256z" />
    <glyph glyph-name="Hcircumflex" unicode="&#x124;" horiz-adv-x="1216" 
d="M832 832h-448v-832h-256v1792h256v-768h448v768h256v-1792h-256v832zM608 2168l-128 -256h-192l192 384h256l192 -384h-192z" />
    <glyph glyph-name="hcircumflex" unicode="&#x125;" 
d="M706 1298q77 0 128 -60t51 -147v-1091h-256v960q-1 66 -17 97t-82 31t-157 -75v-1013h-256v1792h256v-650q57 52 93 80t100 52t140 24zM501 2150l-128 -256h-192l192 384h256l192 -384h-192z" />
    <glyph glyph-name="Hbar" unicode="&#x126;" horiz-adv-x="1216" 
d="M832 1355h-448v-331h448v331zM832 832h-448v-832h-256v1355h-98v139h98v298h256v-298h448v298h256v-298h98v-139h-98v-1355h-256v832z" />
    <glyph glyph-name="hbar" unicode="&#x127;" horiz-adv-x="1024" 
d="M717 1298q77 0 128 -60t51 -147v-1091h-256v960q0 66 -16 97t-84 31q-66 0 -156 -75v-1013h-256v1450h-129v152h129v190h256v-190h167v-152h-167v-308q57 52 93 80q35 28 99 52t141 24z" />
    <glyph glyph-name="Itilde" unicode="&#x128;" horiz-adv-x="542" 
d="M140 1792h256v-1792h-256v1792zM401 1912q-49 0 -99 22t-97 44t-88 21q-48 0 -48 -67h-154q-1 116 57 194t163 79q58 0 145 -43t137 -43t50 69h154q1 -116 -57 -196t-163 -80z" />
    <glyph glyph-name="itilde" unicode="&#x129;" horiz-adv-x="512" 
d="M128 1280h256v-1280h-256v1280zM389 1400q-49 0 -99 22t-97 44t-88 21q-48 0 -48 -67h-154q-1 116 57 194t163 79q58 0 145 -43t137 -43t50 69h154q1 -116 -57 -196t-163 -80z" />
    <glyph glyph-name="Imacron" unicode="&#x12a;" horiz-adv-x="542" 
d="M140 1792h256v-1792h-256v1792zM51 2064h434v-152h-434v152z" />
    <glyph glyph-name="imacron" unicode="&#x12b;" horiz-adv-x="512" 
d="M128 1280h256v-1280h-256v1280zM39 1552h434v-152h-434v152z" />
    <glyph glyph-name="Ibreve" unicode="&#x12c;" horiz-adv-x="542" 
d="M140 1792h256v-1792h-256v1792zM588 2296q0 -200 -70 -292t-249 -92q-181 0 -251 93t-70 291h192q0 -102 24 -147t104 -45t104 46t24 146h192z" />
    <glyph glyph-name="ibreve" unicode="&#x12d;" horiz-adv-x="512" 
d="M128 1280h256v-1280h-256v1280zM576 1784q0 -200 -70 -292t-249 -92q-181 0 -251 93t-70 291h192q0 -102 24 -147t104 -45t104 46t24 146h192z" />
    <glyph glyph-name="Iogonek" unicode="&#x12e;" horiz-adv-x="542" 
d="M396 -505h-45q-154 1 -194 7t-70 12q-31 6 -49 17q-51 27 -70 63q-20 36 -20 92t24 112q44 104 142 174q23 16 46 28h-20v1792h256v-1792h-78q-138 -165 -165 -240q-13 -36 -13 -69q0 -74 144 -74l112 6v-128z" />
    <glyph glyph-name="iogonek" unicode="&#x12f;" horiz-adv-x="512" 
d="M128 1728h256v-256h-256v256zM384 -505h-45q-154 1 -194 7t-70 12q-31 6 -49 17q-51 27 -70 63q-20 36 -20 92t24 112q44 104 142 174q23 16 46 28h-20v1280h256v-1280h-78q-7 -8 -21 -25t-30 -37t-36 -46q-91 -118 -91 -201q0 -74 144 -74l112 6v-128z" />
    <glyph glyph-name="Idotaccent" unicode="&#x130;" horiz-adv-x="542" 
d="M140 1792h256v-1792h-256v1792zM140 2168h256v-256h-256v256z" />
    <glyph glyph-name="dotlessi" unicode="&#x131;" horiz-adv-x="512" 
d="M128 1280h256v-1280h-256v1280z" />
    <glyph glyph-name="IJ" unicode="&#x132;" horiz-adv-x="1182" 
d="M140 1792h256v-1792h-256v1792zM542 192q84 0 130 9t76 39t40 76q10 48 10 132v1344h256v-1344q0 -122 -16 -202t-58 -137q-80 -109 -310 -109h-128v192z" />
    <glyph glyph-name="ij" unicode="&#x133;" horiz-adv-x="1049" 
d="M128 1728h256v-256h-256v256zM128 1280h256v-1280h-256v1280zM662 1728h256v-256h-256v256zM598 -320q-84 0 -128 17v182q35 -7 64 -7q128 0 128 149v1259h256v-1287q0 -149 -86 -231t-234 -82z" />
    <glyph glyph-name="Jcircumflex" unicode="&#x134;" horiz-adv-x="640" 
d="M0 192q84 0 130 9t76 39t40 76q10 48 10 132v1344h256v-1344q0 -122 -16 -202t-58 -137q-80 -109 -310 -109h-128v192zM256 2168l-128 -256h-192l192 384h256l192 -384h-192z" />
    <glyph glyph-name="jcircumflex" unicode="&#x135;" horiz-adv-x="576" 
d="M128 -320q-84 0 -128 17v182q35 -7 64 -7q128 0 128 149v1259h256v-1287q0 -149 -86 -231t-234 -82zM224 1656l-128 -256h-192l192 384h256l192 -384h-192z" />
    <glyph glyph-name="Kcommaaccent" unicode="&#x136;" horiz-adv-x="1118" 
d="M384 0h-256v1792h256v-768l384 768h320l-385 -704l449 -1088h-320l-320 832l-128 -256v-576zM512 -102h256q0 -250 -6 -310q-12 -114 -54 -158q-41 -44 -132 -44l-64 128q68 0 98 30t30 98h-128v256z" />
    <glyph glyph-name="kcommaaccent" unicode="&#x137;" horiz-adv-x="943" 
d="M373 1792v-985l320 473h256l-287 -447l287 -833h-256l-192 619l-128 -171v-448h-256v1792h256zM405 -102h256q-1 -250 -7 -310q-12 -114 -53 -158t-132 -44l-64 128q69 0 99 30t29 98h-128v256z" />
    <glyph glyph-name="kgreenlandic" unicode="&#x138;" horiz-adv-x="960" 
d="M384 1281v-544l320 543h256l-287 -487l287 -793h-256l-202 619l-118 -181v-438h-256v1281h256z" />
    <glyph glyph-name="Lacute" unicode="&#x139;" horiz-adv-x="823" 
d="M128 0v1792h256v-1600h448v-192h-704zM544 1912h-128l128 384h256z" />
    <glyph glyph-name="lacute" unicode="&#x13a;" horiz-adv-x="497" 
d="M378 0h-256v1792h256v-1792zM314 1894h-128l128 384h256z" />
    <glyph glyph-name="Lcommaaccent" unicode="&#x13b;" horiz-adv-x="823" 
d="M128 0v1792h256v-1600h448v-192h-704zM352 -102h256q0 -250 -6 -310q-12 -114 -54 -158q-41 -44 -132 -44l-64 128q68 0 98 30t30 98h-128v256z" />
    <glyph glyph-name="lcommaaccent" unicode="&#x13c;" horiz-adv-x="497" 
d="M378 0h-256v1792h256v-1792zM122 -102h256q0 -250 -6 -310q-12 -114 -54 -158q-41 -44 -132 -44l-64 128q68 0 98 30t30 98h-128v256z" />
    <glyph glyph-name="Lcaron" unicode="&#x13d;" horiz-adv-x="823" 
d="M128 0v1792h256v-1600h448v-192h-704zM985 1810h256q-1 -250 -7 -310q-12 -114 -53 -158t-132 -44l-64 128q69 0 99 30t29 98h-128v256z" />
    <glyph glyph-name="lcaron" unicode="&#x13e;" horiz-adv-x="497" 
d="M378 0h-256v1792h256v-1792zM531 1792h256q-1 -250 -7 -310q-12 -114 -53 -158t-132 -44l-64 128q69 0 99 30t29 98h-128v256z" />
    <glyph glyph-name="Ldot" unicode="&#x13f;" horiz-adv-x="896" 
d="M600 1168h256v-256h-256v256zM128 0v1792h256v-1600h448v-192h-704z" />
    <glyph glyph-name="ldot" unicode="&#x140;" horiz-adv-x="889" 
d="M378 0h-256v1792h256v-1792z" />
    <glyph glyph-name="Lslash" unicode="&#x141;" horiz-adv-x="945" 
d="M177 0v858l-128 -71v206l128 71v728h256v-585l266 148v-206l-266 -148v-809h448v-192h-704z" />
    <glyph glyph-name="lslash" unicode="&#x142;" horiz-adv-x="519" 
d="M142 0v1160l-130 -60v192l130 60v440h256v-323l158 73v-195l-158 -70v-1277h-256z" />
    <glyph glyph-name="Nacute" unicode="&#x143;" horiz-adv-x="1152" 
d="M384 0h-256v1792h192l448 -1108v1108h256v-1792h-182l-458 1192v-1192zM640 1912h-128l128 384h256z" />
    <glyph glyph-name="nacute" unicode="&#x144;" 
d="M706 1298q77 0 128 -60t51 -147v-1091h-256v960q0 68 -19 98q-18 30 -64 30t-83 -15t-90 -60v-1013h-256v1280h256v-138q57 52 93 80t100 52t140 24zM565 1400h-128l128 384h256z" />
    <glyph glyph-name="Ncommaaccent" unicode="&#x145;" horiz-adv-x="1152" 
d="M384 0h-256v1792h192l448 -1108v1108h256v-1792h-182l-458 1192v-1192zM448 -102h256q0 -250 -6 -310q-12 -114 -54 -158q-41 -44 -132 -44l-64 128q68 0 98 30t30 98h-128v256z" />
    <glyph glyph-name="ncommaaccent" unicode="&#x146;" 
d="M706 1298q77 0 128 -60t51 -147v-1091h-256v960q0 68 -19 98q-18 30 -64 30t-83 -15t-90 -60v-1013h-256v1280h256v-138q57 52 93 80t100 52t140 24zM373 -102h256q-1 -250 -7 -310q-12 -114 -53 -158t-132 -44l-64 128q69 0 99 30t29 98h-128v256z" />
    <glyph glyph-name="Ncaron" unicode="&#x147;" horiz-adv-x="1152" 
d="M384 0h-256v1792h192l448 -1108v1108h256v-1792h-182l-458 1192v-1192zM704 2296h192l-192 -384h-256l-192 384h192l128 -256z" />
    <glyph glyph-name="ncaron" unicode="&#x148;" 
d="M706 1298q77 0 128 -60t51 -147v-1091h-256v960q0 68 -19 98q-18 30 -64 30t-83 -15t-90 -60v-1013h-256v1280h256v-138q57 52 93 80t100 52t140 24zM629 1784h192l-192 -384h-256l-192 384h192l128 -256z" />
    <glyph glyph-name="Omacron" unicode="&#x14c;" horiz-adv-x="1180" 
d="M590 1600q-136 0 -187 -77t-51 -233v-778q0 -158 52 -239t186 -81t186 81t52 239v778q0 156 -51 233t-187 77zM590 1810q262 0 378 -150t116 -434v-650q0 -438 -264 -552q-96 -42 -230 -42q-268 0 -381 156t-113 438v650q0 439 262 545q96 39 232 39zM373 2064h434v-152
h-434v152z" />
    <glyph glyph-name="omacron" unicode="&#x14d;" horiz-adv-x="954" 
d="M477 1088q-27 0 -47 -8t-34 -20t-23 -34q-18 -46 -21 -91t-3 -103v-384q-1 -120 7 -146t17 -48t23 -34t34 -20t47 -8t47 8t34 20t23 34q18 46 21 91t3 103v384q1 120 -7 146t-17 48t-23 34t-34 20t-47 8zM477 -18q-206 0 -295 120t-89 346v384q0 226 89 346t295 120
t295 -120t89 -346v-384q0 -226 -89 -346t-295 -120zM260 1552h434v-152h-434v152z" />
    <glyph glyph-name="Obreve" unicode="&#x14e;" horiz-adv-x="1180" 
d="M590 1600q-136 0 -187 -77t-51 -233v-778q0 -158 52 -239t186 -81t186 81t52 239v778q0 156 -51 233t-187 77zM590 1810q262 0 378 -150t116 -434v-650q0 -438 -264 -552q-96 -42 -230 -42q-268 0 -381 156t-113 438v650q0 439 262 545q96 39 232 39zM910 2296
q0 -200 -70 -292t-249 -92q-181 0 -251 93t-70 291h192q0 -102 24 -147t104 -45t104 46t24 146h192z" />
    <glyph glyph-name="obreve" unicode="&#x14f;" horiz-adv-x="954" 
d="M477 1088q-27 0 -47 -8t-34 -20t-23 -34q-18 -46 -21 -91t-3 -103v-384q-1 -120 7 -146t17 -48t23 -34t34 -20t47 -8t47 8t34 20t23 34q18 46 21 91t3 103v384q1 120 -7 146t-17 48t-23 34t-34 20t-47 8zM477 -18q-206 0 -295 120t-89 346v384q0 226 89 346t295 120
t295 -120t89 -346v-384q0 -226 -89 -346t-295 -120zM797 1784q1 -200 -69 -292t-250 -92t-250 93t-71 291h192q1 -102 25 -147t103 -45t103 46t25 146h192z" />
    <glyph glyph-name="Ohungarumlaut" unicode="&#x150;" horiz-adv-x="1180" 
d="M590 1600q-136 0 -187 -77t-51 -233v-778q0 -158 52 -239t186 -81t186 81t52 239v778q0 156 -51 233t-187 77zM590 1810q262 0 378 -150t116 -434v-650q0 -438 -264 -552q-96 -42 -230 -42q-268 0 -381 156t-113 438v650q0 439 262 545q96 39 232 39zM801 1912h-128
l128 384h256zM507 1912h-128l88 384h206z" />
    <glyph glyph-name="ohungarumlaut" unicode="&#x151;" horiz-adv-x="954" 
d="M477 1088q-27 0 -47 -8t-34 -20t-23 -34q-18 -46 -21 -91t-3 -103v-384q-1 -120 7 -146t17 -48t23 -34t34 -20t47 -8t47 8t34 20t23 34q18 46 21 91t3 103v384q1 120 -7 146t-17 48t-23 34t-34 20t-47 8zM477 -18q-206 0 -295 120t-89 346v384q0 226 89 346t295 120
t295 -120t89 -346v-384q0 -226 -89 -346t-295 -120zM688 1400h-128l128 384h256zM394 1400h-128l88 384h206z" />
    <glyph glyph-name="OE" unicode="&#x152;" horiz-adv-x="1664" 
d="M638 1600q-136 0 -194 -83q-60 -83 -60 -237v-768q0 -154 60 -237t196 -83t196 83t60 237v782q-2 146 -62 226t-196 80zM640 1810q176 0 256 -146v128h704v-192h-448v-576h320v-192h-320v-640h448v-192h-704v128q-76 -146 -256 -146q-512 0 -512 594v640q0 594 512 594z
" />
    <glyph glyph-name="oe" unicode="&#x153;" horiz-adv-x="1536" 
d="M1152 768q0 154 -15 214q-29 105 -112 106q-50 0 -69 -24q-18 -24 -28 -39q-10 -16 -16 -44q-16 -75 -16 -189v-24h256zM512 1088q-28 0 -48 -8t-34 -20t-22 -34q-18 -46 -21 -91t-3 -103v-384q0 -120 8 -146t16 -48t22 -34t34 -20t48 -8t48 8t34 20t22 34q18 46 21 91
t3 103v384q0 120 -8 146t-16 48t-22 34t-34 20t-48 8zM896 576q0 -158 3 -196q23 -182 125 -188q81 0 105 60q23 60 23 108v88h256q0 -230 -90 -348t-282 -118t-268 146q-76 -146 -269 -146t-282 120t-89 346v384q0 226 89 346t295 120q176 0 256 -146q74 146 248 146
t258 -88t109 -224t25 -316v-30h-512v-64z" />
    <glyph glyph-name="Racute" unicode="&#x154;" horiz-adv-x="1108" 
d="M768 1312q0 152 -80 220t-240 68h-64v-576h64q160 0 240 68t80 220zM1024 1312q0 -160 -57 -268t-167 -148l288 -896h-254l-258 832h-192v-832h-256v1792h320q286 0 431 -111t145 -369zM672 1912h-128l128 384h256z" />
    <glyph glyph-name="racute" unicode="&#x155;" horiz-adv-x="680" 
d="M652 1298q3 0 41 -4v-283q-71 28 -147 28t-124 -48q-49 -48 -49 -127v-864h-256v1280h256v-171q39 77 113 133t166 56zM469 1400h-128l128 384h256z" />
    <glyph glyph-name="Rcommaaccent" unicode="&#x156;" horiz-adv-x="1108" 
d="M768 1312q0 152 -80 220t-240 68h-64v-576h64q160 0 240 68t80 220zM1024 1312q0 -160 -57 -268t-167 -148l288 -896h-254l-258 832h-192v-832h-256v1792h320q286 0 431 -111t145 -369zM480 -102h256q0 -250 -6 -310q-12 -114 -54 -158q-41 -44 -132 -44l-64 128
q68 0 98 30t30 98h-128v256z" />
    <glyph glyph-name="rcommaaccent" unicode="&#x157;" horiz-adv-x="680" 
d="M652 1298q3 0 41 -4v-283q-71 28 -147 28t-124 -48q-49 -48 -49 -127v-864h-256v1280h256v-171q39 77 113 133t166 56zM277 -102h256q-1 -250 -7 -310q-12 -114 -53 -158t-132 -44l-64 128q69 0 99 30t29 98h-128v256z" />
    <glyph glyph-name="Rcaron" unicode="&#x158;" horiz-adv-x="1108" 
d="M768 1312q0 152 -80 220t-240 68h-64v-576h64q160 0 240 68t80 220zM1024 1312q0 -160 -57 -268t-167 -148l288 -896h-254l-258 832h-192v-832h-256v1792h320q286 0 431 -111t145 -369zM736 2296h192l-192 -384h-256l-192 384h192l128 -256z" />
    <glyph glyph-name="rcaron" unicode="&#x159;" horiz-adv-x="680" 
d="M652 1298q3 0 41 -4v-283q-71 28 -147 28t-124 -48q-49 -48 -49 -127v-864h-256v1280h256v-171q39 77 113 133t166 56zM533 1784h192l-192 -384h-256l-192 384h192l128 -256z" />
    <glyph glyph-name="Sacute" unicode="&#x15a;" horiz-adv-x="1102" 
d="M339 1405q0 -151 128 -253l320 -256q256 -207 256 -495q1 -197 -121 -308t-346 -111t-350 142q-128 142 -143 388l256 64q19 -384 256 -384q192 0 192 192q0 115 -55 185t-137 135l-320 256q-89 70 -141 176t-52 242q0 198 123 315t341 117t349 -122q130 -122 148 -344
l-256 -64q-8 134 -67 227q-58 93 -202 93q-78 0 -129 -52q-50 -52 -50 -143zM626 1912h-128l128 384h256z" />
    <glyph glyph-name="sacute" unicode="&#x15b;" horiz-adv-x="872" 
d="M248 384q68 -192 194 -192t126 142q0 75 -64 134l-256 192q-140 95 -176 200q-16 46 -16 100q0 164 104 251t280 87q234 0 338 -208q30 -58 46 -130l-192 -64q-50 136 -121 174q-32 18 -82 18q-49 0 -83 -34t-34 -94t64 -108l256 -192q142 -112 177 -231q15 -51 15 -109
q0 -164 -104 -251t-272 -87q-166 0 -262 94t-130 244zM504 1400h-128l128 384h256z" />
    <glyph glyph-name="Scircumflex" unicode="&#x15c;" horiz-adv-x="1102" 
d="M339 1405q0 -151 128 -253l320 -256q256 -207 256 -495q1 -197 -121 -308t-346 -111t-350 142q-128 142 -143 388l256 64q19 -384 256 -384q192 0 192 192q0 115 -55 185t-137 135l-320 256q-89 70 -141 176t-52 242q0 198 123 315t341 117t349 -122q130 -122 148 -344
l-256 -64q-8 134 -67 227q-58 93 -202 93q-78 0 -129 -52q-50 -52 -50 -143zM562 2168l-128 -256h-192l192 384h256l192 -384h-192z" />
    <glyph glyph-name="scircumflex" unicode="&#x15d;" horiz-adv-x="872" 
d="M248 384q68 -192 194 -192t126 142q0 75 -64 134l-256 192q-140 95 -176 200q-16 46 -16 100q0 164 104 251t280 87q234 0 338 -208q30 -58 46 -130l-192 -64q-50 136 -121 174q-32 18 -82 18q-49 0 -83 -34t-34 -94t64 -108l256 -192q142 -112 177 -231q15 -51 15 -109
q0 -164 -104 -251t-272 -87q-166 0 -262 94t-130 244zM440 1656l-128 -256h-192l192 384h256l192 -384h-192z" />
    <glyph glyph-name="Scedilla" unicode="&#x15e;" horiz-adv-x="1102" 
d="M542 -387q148 0 148 63q0 32 -22 49t-36 26q-37 24 -134 56v181q-172 24 -272 136q-128 142 -143 388l256 64q19 -384 256 -384q192 0 192 192q0 115 -55 185t-137 135l-320 256q-89 70 -141 176t-52 242q0 198 123 315t341 117t349 -122q130 -122 148 -344l-256 -64
q-8 134 -67 227t-189 93q-92 0 -142 -52t-50 -143q0 -151 128 -253l320 -256q256 -207 256 -495q0 -197 -117 -304t-300 -114v-112q113 -30 151 -54q37 -25 59 -43q46 -37 46 -94q0 -58 -15 -83t-28 -39t-31 -24t-38 -18q-18 -8 -43 -13q-80 -16 -207 -16h-86v128z" />
    <glyph glyph-name="scedilla" unicode="&#x15f;" horiz-adv-x="872" 
d="M248 384q68 -192 194 -192t126 142q0 75 -64 134l-256 192q-140 95 -176 200q-16 46 -16 100q0 164 104 251t280 87q234 0 338 -208q30 -58 46 -130l-192 -64q-50 136 -121 174q-32 18 -82 18q-49 0 -83 -34t-34 -94t64 -108l256 -192q142 -112 177 -231q15 -51 15 -109
q0 -164 -104 -251q-85 -70 -216 -84v-114q136 -38 196 -83q60 -46 60 -109q0 -109 -84 -151t-279 -41h-85v128l108 -2q148 0 148 66q0 28 -22 46q-22 17 -36 26t-37 19q-22 10 -35 14q-13 6 -35 14t-27 9v179q-114 16 -200 100q-85 84 -120 234z" />
    <glyph glyph-name="Scaron" unicode="&#x160;" horiz-adv-x="1102" 
d="M339 1405q0 -151 128 -253l320 -256q256 -207 256 -495q1 -197 -121 -308t-346 -111t-350 142q-128 142 -143 388l256 64q19 -384 256 -384q192 0 192 192q0 115 -55 185t-137 135l-320 256q-89 70 -141 176t-52 242q0 198 123 315t341 117t349 -122q130 -122 148 -344
l-256 -64q-8 134 -67 227q-58 93 -202 93q-78 0 -129 -52q-50 -52 -50 -143zM690 2296h192l-192 -384h-256l-192 384h192l128 -256z" />
    <glyph glyph-name="scaron" unicode="&#x161;" horiz-adv-x="872" 
d="M248 384q68 -192 194 -192t126 142q0 75 -64 134l-256 192q-140 95 -176 200q-16 46 -16 100q0 164 104 251t280 87q234 0 338 -208q30 -58 46 -130l-192 -64q-50 136 -121 174q-32 18 -82 18q-49 0 -83 -34t-34 -94t64 -108l256 -192q142 -112 177 -231q15 -51 15 -109
q0 -164 -104 -251t-272 -87q-166 0 -262 94t-130 244zM568 1784h192l-192 -384h-256l-192 384h192l128 -256z" />
    <glyph glyph-name="Tcommaaccent" unicode="&#x162;" horiz-adv-x="888" 
d="M572 -303q0 28 -22 46q-22 17 -36 26t-37 19q-22 10 -35 14q-13 6 -35 14t-27 9v175h-64v1564h-320v228h896v-228h-320v-1564h-64v-111q136 -38 196 -83q60 -46 60 -109q0 -109 -84 -151t-279 -41h-85v128l108 -2q148 0 148 66z" />
    <glyph glyph-name="tcommaaccent" unicode="&#x163;" horiz-adv-x="658" 
d="M169 1088h-128v192h128v448h256v-448h192v-192h-192v-747q0 -77 21 -113t85 -36q29 0 86 10v-208q-96 -12 -145 -12t-79 4v-115q124 -35 165 -63q42 -29 66 -56t25 -69q0 -41 -11 -71q-10 -30 -28 -50t-46 -34q-54 -27 -120 -34q-65 -7 -158 -7h-85v128l108 -2
q148 0 148 66q0 28 -22 46q-23 17 -37 26t-36 19t-35 14q-13 6 -35 14t-27 9v192h70q-163 53 -166 293v796z" />
    <glyph glyph-name="Tcaron" unicode="&#x164;" horiz-adv-x="888" 
d="M892 1792v-228h-320v-1564h-256v1564h-320v228h896zM572 2296h192l-192 -384h-256l-192 384h192l128 -256z" />
    <glyph glyph-name="tcaron" unicode="&#x165;" horiz-adv-x="658" 
d="M459 -18q-151 0 -219 77t-71 233v796h-128v192h128v448h256v-448h192v-192h-192v-747q0 -77 21 -113t85 -36q29 0 86 10v-208q-96 -12 -158 -12zM770 1728h256q0 -250 -6 -310q-12 -114 -54 -158q-41 -44 -132 -44l-64 128q68 0 98 30t30 98h-128v256z" />
    <glyph glyph-name="Utilde" unicode="&#x168;" horiz-adv-x="1252" 
d="M1138 640q0 -388 -160 -542q-122 -118 -352 -117q-336 0 -446 257q-66 154 -66 402v1152h256v-1152q0 -269 62 -358q62 -90 194 -90q131 0 187 80q55 80 65 229q4 56 4 139v1152h256v-1152zM759 1912q-49 0 -99 22t-97 44t-88 21q-48 0 -48 -67h-154q-1 116 57 194
t163 79q58 0 145 -43t137 -43t50 69h154q1 -116 -57 -196t-163 -80z" />
    <glyph glyph-name="utilde" unicode="&#x169;" 
d="M107 189v1091h256v-1013q1 -40 25 -65t54 -25t50 5q20 6 40 18t30 20q12 8 32 25q20 18 25 22v1013h256v-1280h-256v138q-119 -103 -159 -120q-86 -36 -169 -36q-82 0 -133 60t-51 147zM624 1400q-60 0 -148 44t-136 43q-48 0 -48 -67h-154q0 116 58 194t162 79
q58 0 145 -43t137 -43t50 69h154q0 -116 -58 -196t-162 -80z" />
    <glyph glyph-name="Umacron" unicode="&#x16a;" horiz-adv-x="1252" 
d="M1138 640q0 -388 -160 -542q-122 -118 -352 -117q-336 0 -446 257q-66 154 -66 402v1152h256v-1152q0 -269 62 -358q62 -90 194 -90q131 0 187 80q55 80 65 229q4 56 4 139v1152h256v-1152zM409 2064h434v-152h-434v152z" />
    <glyph glyph-name="umacron" unicode="&#x16b;" 
d="M107 189v1091h256v-1013q1 -40 25 -65t54 -25t50 5q20 6 40 18t30 20q12 8 32 25q20 18 25 22v1013h256v-1280h-256v138q-119 -103 -159 -120q-86 -36 -169 -36q-82 0 -133 60t-51 147zM274 1552h434v-152h-434v152z" />
    <glyph glyph-name="Ubreve" unicode="&#x16c;" horiz-adv-x="1252" 
d="M1138 640q0 -388 -160 -542q-122 -118 -352 -117q-336 0 -446 257q-66 154 -66 402v1152h256v-1152q0 -269 62 -358q62 -90 194 -90q131 0 187 80q55 80 65 229q4 56 4 139v1152h256v-1152zM946 2296q0 -200 -70 -292t-249 -92q-181 0 -251 93t-70 291h192
q0 -102 24 -147t104 -45t104 46t24 146h192z" />
    <glyph glyph-name="ubreve" unicode="&#x16d;" 
d="M107 189v1091h256v-1013q1 -40 25 -65t54 -25t50 5q20 6 40 18t30 20q12 8 32 25q20 18 25 22v1013h256v-1280h-256v138q-119 -103 -159 -120q-86 -36 -169 -36q-82 0 -133 60t-51 147zM811 1784q1 -200 -69 -292t-250 -92t-250 93t-71 291h192q1 -102 25 -147t103 -45
t103 46t25 146h192z" />
    <glyph glyph-name="Uring" unicode="&#x16e;" horiz-adv-x="1252" 
d="M1138 640q0 -388 -160 -542q-122 -118 -352 -117q-336 0 -446 257q-66 154 -66 402v1152h256v-1152q0 -269 62 -358q62 -90 194 -90q131 0 187 80q55 80 65 229q4 56 4 139v1152h256v-1152zM370 2168q0 116 70 186t186 70t186 -70t70 -186t-70 -186t-186 -70t-186 70
t-70 186zM754 2168q0 60 -34 94t-94 34t-94 -34t-34 -94t34 -94t94 -34t94 34t34 94z" />
    <glyph glyph-name="uring" unicode="&#x16f;" 
d="M107 189v1091h256v-1013q1 -40 25 -65t54 -25t50 5q20 6 40 18t30 20q12 8 32 25q20 18 25 22v1013h256v-1280h-256v138q-119 -103 -159 -120q-86 -36 -169 -36q-82 0 -133 60t-51 147zM235 1656q-1 116 69 186t187 70t187 -70t69 -186q1 -116 -69 -186t-187 -70t-187 70
t-69 186zM619 1656q0 60 -34 94t-94 34t-94 -34t-34 -94t34 -94t94 -34t94 34t34 94z" />
    <glyph glyph-name="Uhungarumlaut" unicode="&#x170;" horiz-adv-x="1252" 
d="M1138 640q0 -388 -160 -542q-122 -118 -352 -117q-336 0 -446 257q-66 154 -66 402v1152h256v-1152q0 -269 62 -358q62 -90 194 -90q131 0 187 80q55 80 65 229q4 56 4 139v1152h256v-1152zM837 1912h-128l128 384h256zM543 1912h-128l88 384h206z" />
    <glyph glyph-name="uhungarumlaut" unicode="&#x171;" 
d="M107 189v1091h256v-1013q1 -40 25 -65t54 -25t50 5q20 6 40 18t30 20q12 8 32 25q20 18 25 22v1013h256v-1280h-256v138q-119 -103 -159 -120q-86 -36 -169 -36q-82 0 -133 60t-51 147zM702 1400h-128l128 384h256zM408 1400h-128l88 384h206z" />
    <glyph glyph-name="Uogonek" unicode="&#x172;" horiz-adv-x="1252" 
d="M754 -524h-45q-154 0 -194 6t-70 14q-31 6 -49 16q-51 27 -70 63q-20 36 -20 92q0 55 24 111q44 104 142 176q29 21 58 33q-257 33 -350 251q-66 154 -66 402v1152h256v-1152q0 -269 62 -358q62 -90 194 -90q131 0 187 80q55 80 65 229q4 56 4 139v1152h256v-1152
q0 -388 -160 -542q-107 -104 -300 -115q-9 -11 -28 -34q-20 -23 -38 -45q-114 -139 -114 -232q0 -74 144 -74l112 6v-128z" />
    <glyph glyph-name="uogonek" unicode="&#x173;" 
d="M820 -522h-45q-154 0 -194 6t-70 14q-31 6 -49 16q-51 27 -70 63q-20 36 -20 92q0 111 83 209q83 97 173 122h-9v138q-119 -103 -159 -120q-86 -36 -169 -36q-82 0 -133 60t-51 147v1091h256v-1013q1 -40 25 -65t54 -25t50 5q20 6 40 18t30 20q12 8 32 25q20 18 25 22
v1013h256v-1280h-119q-10 -13 -30 -36t-35 -43q-16 -20 -36 -46q-91 -118 -91 -201q0 -74 144 -74l112 6v-128z" />
    <glyph glyph-name="Wcircumflex" unicode="&#x174;" horiz-adv-x="1558" 
d="M907 1792l128 -832l63 -512l65 512l128 832h256l-320 -1792h-256l-128 832l-64 512l-64 -512l-128 -832h-256l-320 1792h256l128 -832l65 -512l63 512l128 832h256zM779 2168l-128 -256h-192l192 384h256l192 -384h-192z" />
    <glyph glyph-name="wcircumflex" unicode="&#x175;" horiz-adv-x="1269" 
d="M635 882l-138 -882h-246l-237 1280h227l142 -972l134 972h234l136 -962l140 962h228l-248 -1280h-236zM634 1656l-128 -256h-192l192 384h256l192 -384h-192z" />
    <glyph glyph-name="Ycircumflex" unicode="&#x176;" horiz-adv-x="1018" 
d="M381 0v576l-384 1216h256l256 -896l256 896h256l-384 -1216v-576h-256zM509 2168l-128 -256h-192l192 384h256l192 -384h-192z" />
    <glyph glyph-name="ycircumflex" unicode="&#x177;" horiz-adv-x="842" 
d="M74 -128q104 0 165 46t61 140l-290 1222h256q149 -823 161 -896q34 218 87 506q54 289 72 390h256l-320 -1344q-32 -142 -142 -199t-306 -57v192zM426 1656l-128 -256h-192l192 384h256l192 -384h-192z" />
    <glyph glyph-name="Ydieresis" unicode="&#x178;" horiz-adv-x="1018" 
d="M381 0v576l-384 1216h256l256 -896l256 896h256l-384 -1216v-576h-256zM573 2168h256v-256h-256v256zM189 2168h256v-256h-256v256z" />
    <glyph glyph-name="Zacute" unicode="&#x179;" horiz-adv-x="951" 
d="M894 192v-192h-832v192l576 1408h-512v192h768v-192l-576 -1408h576zM542 1912h-128l128 384h256z" />
    <glyph glyph-name="zacute" unicode="&#x17a;" horiz-adv-x="782" 
d="M105 1088v192h640v-192l-448 -896h448v-192h-704v192l448 896h-384zM457 1400h-128l128 384h256z" />
    <glyph glyph-name="Zdotaccent" unicode="&#x17b;" horiz-adv-x="951" 
d="M894 192v-192h-832v192l576 1408h-512v192h768v-192l-576 -1408h576zM350 2168h256v-256h-256v256z" />
    <glyph glyph-name="zdotaccent" unicode="&#x17c;" horiz-adv-x="782" 
d="M105 1088v192h640v-192l-448 -896h448v-192h-704v192l448 896h-384zM265 1656h256v-256h-256v256z" />
    <glyph glyph-name="Zcaron" unicode="&#x17d;" horiz-adv-x="951" 
d="M894 192v-192h-832v192l576 1408h-512v192h768v-192l-576 -1408h576zM606 2296h192l-192 -384h-256l-192 384h192l128 -256z" />
    <glyph glyph-name="zcaron" unicode="&#x17e;" horiz-adv-x="782" 
d="M105 1088v192h640v-192l-448 -896h448v-192h-704v192l448 896h-384zM521 1784h192l-192 -384h-256l-192 384h192l128 -256z" />
    <glyph glyph-name="florin" unicode="&#x192;" horiz-adv-x="704" 
d="M448 1376v-96h128v-192h-128v-960q0 -244 -75 -314t-215 -70q-62 0 -158 12v190q60 -10 86 -10q64 0 85 40t21 120v992h-128v192h128v64q0 154 25 221q25 68 57 98q69 65 208 65q62 0 158 -12v-190l-86 10q-64 0 -85 -40t-21 -120z" />
    <glyph glyph-name="uni01C4" unicode="&#x1c4;" horiz-adv-x="2080" 
d="M2014 192v-192h-832v192l576 1408h-512v192h768v-192l-576 -1408h576zM1726 2296h192l-192 -384h-256l-192 384h192l128 -256zM781 1216q0 158 -8 195t-17 65q-8 28 -22 45q-39 47 -88 63t-126 16h-136v-1408h141q146 0 198 69t55 184q4 115 4 140q-1 24 -1 29v602z
M1037 576q1 -296 -117 -436t-397 -140h-395v1792h397q281 0 397 -115t115 -397v-704z" />
    <glyph glyph-name="uni01C5" unicode="&#x1c5;" horiz-adv-x="1950" 
d="M1225 1088v192h640v-192l-448 -896h448v-192h-704v192l448 896h-384zM1641 1784h192l-192 -384h-256l-192 384h192l128 -256zM781 1216q0 158 -8 195t-17 65q-8 28 -22 45q-39 47 -88 63t-126 16h-136v-1408h141q146 0 198 69t55 184q4 115 4 140q-1 24 -1 29v602z
M1037 576q1 -296 -117 -436t-397 -140h-395v1792h397q281 0 397 -115t115 -397v-704z" />
    <glyph glyph-name="uni01C6" unicode="&#x1c6;" horiz-adv-x="1886" 
d="M1161 1088v192h640v-192l-448 -896h448v-192h-704v192l448 896h-384zM1577 1784h192l-192 -384h-256l-192 384h192l128 -256zM553 1256q58 -42 116 -103v638h256v-1791h-256v116q-58 -60 -118 -97t-136 -37q-75 0 -133 38q-104 68 -147 223q-42 156 -42 334v12
q0 317 18 393t41 140t56 96t84 56t127 24t134 -42zM477 1088q-50 0 -70 -24t-30 -40q-29 -51 -29 -208l1 -111q0 -44 -1 -105v-105q0 -45 4 -77t8 -69q8 -61 37 -109t80 -48q93 0 192 40v805q-86 51 -192 51z" />
    <glyph glyph-name="uni01C7" unicode="&#x1c7;" horiz-adv-x="1536" 
d="M128 0v1792h256v-1600h448v-192h-704zM896 192q84 0 130 9t76 39t40 76q10 48 10 132v1344h256v-1344q0 -122 -16 -202t-58 -137q-80 -109 -310 -109h-128v192z" />
    <glyph glyph-name="uni01C8" unicode="&#x1c8;" horiz-adv-x="1433" 
d="M128 0v1792h256v-1600h448v-192h-704zM1046 1728h256v-256h-256v256zM982 -320q-84 0 -128 17v182q35 -7 64 -7q128 0 128 149v1259h256v-1287q0 -149 -86 -231t-234 -82z" />
    <glyph glyph-name="uni01C9" unicode="&#x1c9;" horiz-adv-x="1042" 
d="M378 0h-256v1792h256v-1792zM655 1728h256v-256h-256v256zM591 -320q-84 0 -128 17v182q35 -7 64 -7q128 0 128 149v1259h256v-1287q1 -149 -85 -231t-235 -82z" />
    <glyph glyph-name="uni01CA" unicode="&#x1ca;" horiz-adv-x="1792" 
d="M384 0h-256v1792h192l448 -1108v1108h256v-1792h-182l-458 1192v-1192zM1152 192q84 0 130 9t76 39t40 76q10 48 10 132v1344h256v-1344q0 -122 -16 -202t-58 -137q-80 -109 -310 -109h-128v192z" />
    <glyph glyph-name="uni01CB" unicode="&#x1cb;" horiz-adv-x="1689" 
d="M384 0h-256v1792h192l448 -1108v1108h256v-1792h-182l-458 1192v-1192zM1302 1728h256v-256h-256v256zM1238 -320q-84 0 -128 17v182q35 -7 64 -7q128 0 128 149v1259h256v-1287q0 -149 -86 -231t-234 -82z" />
    <glyph glyph-name="uni01CC" unicode="&#x1cc;" horiz-adv-x="1529" 
d="M706 1298q77 0 128 -60t51 -147v-1091h-256v960q0 68 -19 98q-18 30 -64 30t-83 -15t-90 -60v-1013h-256v1280h256v-138q57 52 93 80t100 52t140 24zM1142 1728h256v-256h-256v256zM1078 -320q-84 0 -128 17v182q35 -7 64 -7q128 0 128 149v1259h256v-1287
q0 -149 -86 -231t-234 -82z" />
    <glyph glyph-name="uni01F1" unicode="&#x1f1;" horiz-adv-x="2080" 
d="M2014 192v-192h-832v192l576 1408h-512v192h768v-192l-576 -1408h576zM781 1216q0 158 -8 195t-17 65q-8 28 -22 45q-39 47 -88 63t-126 16h-136v-1408h141q146 0 198 69t55 184q4 115 4 140q-1 24 -1 29v602zM1037 576q1 -296 -117 -436t-397 -140h-395v1792h397
q281 0 397 -115t115 -397v-704z" />
    <glyph glyph-name="uni01F2" unicode="&#x1f2;" horiz-adv-x="1950" 
d="M1225 1088v192h640v-192l-448 -896h448v-192h-704v192l448 896h-384zM781 1216q0 158 -8 195t-17 65q-8 28 -22 45q-39 47 -88 63t-126 16h-136v-1408h141q146 0 198 69t55 184q4 115 4 140q-1 24 -1 29v602zM1037 576q1 -296 -117 -436t-397 -140h-395v1792h397
q281 0 397 -115t115 -397v-704z" />
    <glyph glyph-name="uni01F3" unicode="&#x1f3;" horiz-adv-x="1886" 
d="M1161 1088v192h640v-192l-448 -896h448v-192h-704v192l448 896h-384zM553 1256q58 -42 116 -103v638h256v-1791h-256v116q-58 -60 -118 -97t-136 -37q-75 0 -133 38q-104 68 -147 223q-42 156 -42 334v12q0 317 18 393t41 140t56 96t84 56t127 24t134 -42zM477 1088
q-50 0 -70 -24t-30 -40q-29 -51 -29 -208l1 -111q0 -44 -1 -105v-105q0 -45 4 -77t8 -69q8 -61 37 -109t80 -48q93 0 192 40v805q-86 51 -192 51z" />
    <glyph glyph-name="uni01F4" unicode="&#x1f4;" horiz-adv-x="1216" 
d="M672 1912h-128l128 384h256zM613 192q59 0 106 25q87 46 116 157t29 266v64h-256v190h512v-894h-192l-64 192q-75 -210 -256 -210q-349 0 -452 283q-60 164 -60 433v454q0 658 522 658q263 0 375 -158t112 -436h-256q-1 171 -17 222q-31 95 -80 129q-50 33 -131 33
q-158 0 -214 -106q-55 -106 -55 -278v-576q0 -217 44 -310q44 -94 116 -122q42 -16 101 -16z" />
    <glyph glyph-name="uni01F5" unicode="&#x1f5;" horiz-adv-x="973" 
d="M577 1400h-128l128 384h256zM466 560q160 0 160 280t-160 280q-94 0 -127 -89t-33 -199q0 -272 160 -272zM754 -99q0 18 -4 33q-14 76 -201 98l-211 25q-38 -28 -66 -81q-28 -52 -28 -112t194 -60l92 2q224 0 224 95zM82 832q0 282 172 404q88 62 217 62q127 0 205 -70
q34 -30 66 -81q81 151 236 151v-210q-96 0 -160 -64q32 -94 32 -210t-40 -219t-130 -165q-88 -62 -214 -62q-37 0 -81 7l-48 8q-2 -5 -10 -17q-9 -12 -17 -28q-8 -15 -8 -39t25 -42q25 -19 69 -27t84 -12t91 -6q50 -2 88 -8q39 -6 83 -16q112 -26 174 -85q62 -58 62 -167
q0 -200 -189 -276q-107 -44 -273 -43q-166 0 -217 8q-51 9 -96 17q-71 13 -128 53t-57 125t54 156t138 113q-52 15 -90 43t-38 75t20 84q20 35 26 47t22 32q14 20 20 28t22 28t18 22q-128 152 -128 384z" />
    <glyph glyph-name="uni0200" unicode="&#x200;" horiz-adv-x="1140" 
d="M103 2296h256l128 -384h-128zM487 2296h206l88 -384h-128zM647 640l-128 768l-128 -768h256zM359 448l-96 -448h-256l384 1792h256l384 -1792h-256l-96 448h-320z" />
    <glyph glyph-name="uni0201" unicode="&#x201;" horiz-adv-x="973" 
d="M30 1784h256l128 -384h-128zM414 1784h206l88 -384h-128zM311 351q0 -159 128 -159q59 0 115 78q10 14 13 16v354q-16 -11 -53 -34q-37 -24 -59 -38q-70 -46 -107 -97t-37 -120zM567 896q0 204 -116 204q-61 0 -91 -29q-48 -48 -49 -175h-256q2 184 103 293
q100 109 280 109t282 -110t103 -292v-576q0 -200 33 -320h-255l-34 192q-64 -128 -120 -169t-136 -41q-107 0 -181 92t-75 198q-1 104 31 180t67 122t117 94t124 66t103 42t70 28v92z" />
    <glyph glyph-name="uni0202" unicode="&#x202;" horiz-adv-x="1140" 
d="M250 1912q0 200 70 292t249 92q181 0 251 -93t70 -291h-192q0 102 -24 147t-104 45t-104 -46t-24 -146h-192zM647 640l-128 768l-128 -768h256zM359 448l-96 -448h-256l384 1792h256l384 -1792h-256l-96 448h-320z" />
    <glyph glyph-name="uni0203" unicode="&#x203;" horiz-adv-x="973" 
d="M176 1400q0 200 70 292t249 92q181 0 251 -93t70 -291h-192q0 102 -24 147t-104 45t-104 -46t-24 -146h-192zM311 351q0 -159 128 -159q59 0 115 78q10 14 13 16v354q-16 -11 -53 -34q-37 -24 -59 -38q-70 -46 -107 -97t-37 -120zM567 896q0 204 -116 204q-61 0 -91 -29
q-48 -48 -49 -175h-256q2 184 103 293q100 109 280 109t282 -110t103 -292v-576q0 -200 33 -320h-255l-34 192q-64 -128 -120 -169t-136 -41q-107 0 -181 92t-75 198q-1 104 31 180t67 122t117 94t124 66t103 42t70 28v92z" />
    <glyph glyph-name="uni0204" unicode="&#x204;" horiz-adv-x="896" 
d="M13 2296h256l128 -384h-128zM397 2296h206l88 -384h-128zM704 832h-320v-640h448v-192h-704v1792h704v-192h-448v-576h320v-192z" />
    <glyph glyph-name="uni0205" unicode="&#x205;" horiz-adv-x="950" 
d="M13 1784h256l128 -384h-128zM397 1784h206l88 -384h-128zM605 768q0 156 -17 218q-28 102 -108 102q-124 0 -129 -205q-2 -65 -2 -88v-27h256zM349 576q0 -158 3 -196q23 -182 125 -188q65 0 92 41t32 90t5 125h255q0 -230 -91 -348q-92 -118 -298 -118t-293 158
q-55 99 -70 230q-16 131 -16 263q-1 132 5 205q6 72 20 148t42 129t68 97q42 44 104 64q62 22 145 22t145 -22t104 -64q85 -89 110 -225q25 -135 25 -317v-30h-512v-64z" />
    <glyph glyph-name="uni0206" unicode="&#x206;" horiz-adv-x="896" 
d="M160 1912q0 200 70 292t249 92q181 0 251 -93t70 -291h-192q0 102 -24 147t-104 45t-104 -46t-24 -146h-192zM704 832h-320v-640h448v-192h-704v1792h704v-192h-448v-576h320v-192z" />
    <glyph glyph-name="uni0207" unicode="&#x207;" horiz-adv-x="950" 
d="M160 1400q0 200 70 292t249 92q181 0 251 -93t70 -291h-192q0 102 -24 147t-104 45t-104 -46t-24 -146h-192zM605 768q0 156 -17 218q-28 102 -108 102q-124 0 -129 -205q-2 -65 -2 -88v-27h256zM349 576q0 -158 3 -196q23 -182 125 -188q65 0 92 41t32 90t5 125h255
q0 -230 -91 -348q-92 -118 -298 -118t-293 158q-55 99 -70 230q-16 131 -16 263q-1 132 5 205q6 72 20 148t42 129t68 97q42 44 104 64q62 22 145 22t145 -22t104 -64q85 -89 110 -225q25 -135 25 -317v-30h-512v-64z" />
    <glyph glyph-name="uni0208" unicode="&#x208;" horiz-adv-x="542" 
d="M-199 2296h256l128 -384h-128zM185 2296h206l88 -384h-128zM140 1792h256v-1792h-256v1792z" />
    <glyph glyph-name="uni0209" unicode="&#x209;" horiz-adv-x="512" 
d="M-211 1784h256l128 -384h-128zM173 1784h206l88 -384h-128zM128 1280h256v-1280h-256v1280z" />
    <glyph glyph-name="uni020A" unicode="&#x20a;" horiz-adv-x="542" 
d="M-52 1912q0 200 70 292t249 92q181 0 251 -93t70 -291h-192q0 102 -24 147t-104 45t-104 -46t-24 -146h-192zM140 1792h256v-1792h-256v1792z" />
    <glyph glyph-name="uni020B" unicode="&#x20b;" horiz-adv-x="512" 
d="M-64 1400q0 200 70 292t249 92q181 0 251 -93t70 -291h-192q0 102 -24 147t-104 45t-104 -46t-24 -146h-192zM128 1280h256v-1280h-256v1280z" />
    <glyph glyph-name="uni020C" unicode="&#x20c;" horiz-adv-x="1216" 
d="M141 2296h256l128 -384h-128zM525 2296h206l88 -384h-128zM590 1600q-136 0 -187 -77t-51 -233v-778q0 -158 52 -239t186 -81t186 81t52 239v778q0 156 -51 233t-187 77zM590 1810q262 0 378 -150t116 -434v-650q0 -438 -264 -552q-96 -42 -230 -42q-268 0 -381 156
t-113 438v650q0 439 262 545q96 39 232 39z" />
    <glyph glyph-name="uni020D" unicode="&#x20d;" horiz-adv-x="960" 
d="M13 1784h256l128 -384h-128zM397 1784h206l88 -384h-128zM477 1088q-27 0 -47 -8t-34 -20t-23 -34q-18 -46 -21 -91t-3 -103v-384q-1 -120 7 -146t17 -48t23 -34t34 -20t47 -8t47 8t34 20t23 34q18 46 21 91t3 103v384q1 120 -7 146t-17 48t-23 34t-34 20t-47 8zM477 -18
q-206 0 -295 120t-89 346v384q0 226 89 346t295 120t295 -120t89 -346v-384q0 -226 -89 -346t-295 -120z" />
    <glyph glyph-name="uni020E" unicode="&#x20e;" horiz-adv-x="1216" 
d="M288 1912q0 200 70 292t249 92q181 0 251 -93t70 -291h-192q0 102 -24 147t-104 45t-104 -46t-24 -146h-192zM590 1600q-136 0 -187 -77t-51 -233v-778q0 -158 52 -239t186 -81t186 81t52 239v778q0 156 -51 233t-187 77zM590 1810q262 0 378 -150t116 -434v-650
q0 -438 -264 -552q-96 -42 -230 -42q-268 0 -381 156t-113 438v650q0 439 262 545q96 39 232 39z" />
    <glyph glyph-name="uni020F" unicode="&#x20f;" horiz-adv-x="960" 
d="M160 1400q0 200 70 292t249 92q181 0 251 -93t70 -291h-192q0 102 -24 147t-104 45t-104 -46t-24 -146h-192zM477 1088q-27 0 -47 -8t-34 -20t-23 -34q-18 -46 -21 -91t-3 -103v-384q-1 -120 7 -146t17 -48t23 -34t34 -20t47 -8t47 8t34 20t23 34q18 46 21 91t3 103v384
q1 120 -7 146t-17 48t-23 34t-34 20t-47 8zM477 -18q-206 0 -295 120t-89 346v384q0 226 89 346t295 120t295 -120t89 -346v-384q0 -226 -89 -346t-295 -120z" />
    <glyph glyph-name="uni0210" unicode="&#x210;" horiz-adv-x="1152" 
d="M123 2296h256l128 -384h-128zM507 2296h206l88 -384h-128zM768 1312q0 152 -80 220t-240 68h-64v-576h64q160 0 240 68t80 220zM1024 1312q0 -160 -57 -268t-167 -148l288 -896h-254l-258 832h-192v-832h-256v1792h320q286 0 431 -111t145 -369z" />
    <glyph glyph-name="uni0211" unicode="&#x211;" horiz-adv-x="680" 
d="M652 1298q3 0 41 -4v-283q-71 28 -147 28t-124 -48q-49 -48 -49 -127v-864h-256v1280h256v-171q39 77 113 133t166 56zM-62 1784h256l128 -384h-128zM322 1784h206l88 -384h-128z" />
    <glyph glyph-name="uni0212" unicode="&#x212;" horiz-adv-x="1108" 
d="M768 1312q0 152 -80 220t-240 68h-64v-576h64q160 0 240 68t80 220zM1024 1312q0 -160 -57 -268t-167 -148l288 -896h-254l-258 832h-192v-832h-256v1792h320q286 0 431 -111t145 -369zM288 1912q0 200 70 292t249 92q181 0 251 -93t70 -291h-192q0 102 -24 147t-104 45
t-104 -46t-24 -146h-192z" />
    <glyph glyph-name="uni0213" unicode="&#x213;" horiz-adv-x="680" 
d="M652 1298q3 0 41 -4v-283q-71 28 -147 28t-124 -48q-49 -48 -49 -127v-864h-256v1280h256v-171q39 77 113 133t166 56zM85 1400q-1 200 69 292t250 92t250 -93t71 -291h-192q-1 102 -25 147t-103 45t-103 -46t-25 -146h-192z" />
    <glyph glyph-name="uni0214" unicode="&#x214;" horiz-adv-x="1252" 
d="M1138 640q0 -388 -160 -542q-122 -118 -352 -117q-336 0 -446 257q-66 154 -66 402v1152h256v-1152q0 -269 62 -358q62 -90 194 -90q131 0 187 80q55 80 65 229q4 56 4 139v1152h256v-1152zM159 2296h256l128 -384h-128zM543 2296h206l88 -384h-128z" />
    <glyph glyph-name="uni0215" unicode="&#x215;" 
d="M107 189v1091h256v-1013q1 -40 25 -65t54 -25t50 5q20 6 40 18t30 20q12 8 32 25q20 18 25 22v1013h256v-1280h-256v138q-119 -103 -159 -120q-86 -36 -169 -36q-82 0 -133 60t-51 147zM24 1784h256l128 -384h-128zM408 1784h206l88 -384h-128z" />
    <glyph glyph-name="uni0216" unicode="&#x216;" horiz-adv-x="1252" 
d="M1138 640q0 -388 -160 -542q-122 -118 -352 -117q-336 0 -446 257q-66 154 -66 402v1152h256v-1152q0 -269 62 -358q62 -90 194 -90q131 0 187 80q55 80 65 229q4 56 4 139v1152h256v-1152zM306 1912q0 200 70 292t249 92q181 0 251 -93t70 -291h-192q0 102 -24 147
t-104 45t-104 -46t-24 -146h-192z" />
    <glyph glyph-name="uni0217" unicode="&#x217;" 
d="M107 189v1091h256v-1013q1 -40 25 -65t54 -25t50 5q20 6 40 18t30 20q12 8 32 25q20 18 25 22v1013h256v-1280h-256v138q-119 -103 -159 -120q-86 -36 -169 -36q-82 0 -133 60t-51 147zM171 1400q-1 200 69 292t250 92t250 -93t71 -291h-192q-1 102 -25 147t-103 45
t-103 -46t-25 -146h-192z" />
    <glyph glyph-name="Scommaaccent" unicode="&#x218;" horiz-adv-x="1102" 
d="M339 1405q0 -151 128 -253l320 -256q256 -207 256 -495q1 -197 -121 -308t-346 -111t-350 142q-128 142 -143 388l256 64q19 -384 256 -384q192 0 192 192q0 115 -55 185t-137 135l-320 256q-89 70 -141 176t-52 242q0 198 123 315t341 117t349 -122q130 -122 148 -344
l-256 -64q-8 134 -67 227q-58 93 -202 93q-78 0 -129 -52q-50 -52 -50 -143zM434 -120h256q0 -263 -6 -317q-13 -109 -54 -152q-40 -43 -132 -43l-64 128q68 0 98 30t30 98h-128v256z" />
    <glyph glyph-name="scommaaccent" unicode="&#x219;" horiz-adv-x="872" 
d="M248 384q68 -192 194 -192t126 142q0 75 -64 134l-256 192q-140 95 -176 200q-16 46 -16 100q0 164 104 251t280 87q234 0 338 -208q30 -58 46 -130l-192 -64q-50 136 -121 174q-32 18 -82 18q-49 0 -83 -34t-34 -94t64 -108l256 -192q142 -112 177 -231q15 -51 15 -109
q0 -164 -104 -251t-272 -87q-166 0 -262 94t-130 244zM312 -120h256q0 -250 -6 -310q-12 -114 -54 -158q-41 -44 -132 -44l-64 128q68 0 98 30t30 98h-128v256z" />
    <glyph glyph-name="uni021A" unicode="&#x21a;" horiz-adv-x="888" 
d="M892 1792v-228h-320v-1564h-256v1564h-320v228h896zM316 -102h256q0 -250 -6 -310q-12 -114 -54 -158q-41 -44 -132 -44l-64 128q68 0 98 30t30 98h-128v256z" />
    <glyph glyph-name="uni021B" unicode="&#x21b;" horiz-adv-x="658" 
d="M459 -18q-151 0 -219 77t-71 233v796h-128v192h128v448h256v-448h192v-192h-192v-747q0 -77 21 -113t85 -36q29 0 86 10v-208q-96 -12 -158 -12zM201 -120h256q-1 -250 -7 -310q-12 -114 -53 -158t-132 -44l-64 128q69 0 99 30t29 98h-128v256z" />
    <glyph glyph-name="uni0237" unicode="&#x237;" horiz-adv-x="576" 
d="M128 -320q-84 0 -128 17v182q35 -7 64 -7q128 0 128 149v1259h256v-1287q0 -149 -86 -231t-234 -82z" />
    <glyph glyph-name="circumflex" unicode="&#x2c6;" horiz-adv-x="768" 
d="M384 1664l-128 -256h-192l192 384h256l192 -384h-192z" />
    <glyph glyph-name="caron" unicode="&#x2c7;" horiz-adv-x="768" 
d="M512 1792h192l-192 -384h-256l-192 384h192l128 -256z" />
    <glyph glyph-name="breve" unicode="&#x2d8;" horiz-adv-x="768" 
d="M704 1792q0 -200 -70 -292t-249 -92q-181 0 -251 93t-70 291h192q0 -102 24 -147t104 -45t104 46t24 146h192z" />
    <glyph glyph-name="dotaccent" unicode="&#x2d9;" horiz-adv-x="384" 
d="M64 1702h256v-256h-256v256z" />
    <glyph glyph-name="ring" unicode="&#x2da;" horiz-adv-x="640" 
d="M64 1664q0 116 70 186t186 70t186 -70t70 -186t-70 -186t-186 -70t-186 70t-70 186zM448 1664q0 60 -34 94t-94 34t-94 -34t-34 -94t34 -94t94 -34t94 34t34 94z" />
    <glyph glyph-name="ogonek" unicode="&#x2db;" horiz-adv-x="537" 
d="M402 -513h-45q-243 0 -302 30t-74 56q-27 48 -27 106q0 107 81 205t175 125h128q-6 -8 -53 -65t-69 -88t-46 -82t-24 -91q0 -74 144 -74l112 6v-128z" />
    <glyph glyph-name="tilde" unicode="&#x2dc;" horiz-adv-x="960" 
d="M613 1452q-49 0 -99 22t-97 44t-88 21q-48 0 -48 -67h-154q-1 116 57 194t163 79q58 0 145 -43t137 -43t50 69h154q1 -116 -57 -196t-163 -80z" />
    <glyph glyph-name="hungarumlaut" unicode="&#x2dd;" horiz-adv-x="640" 
d="M640 1408h-128l128 384h256zM346 1408h-128l88 384h206z" />
    <glyph glyph-name="uni0307" unicode="&#x307;" horiz-adv-x="384" 
d="M64 1702h256v-256h-256v256z" />
    <glyph glyph-name="uni030F" unicode="&#x30f;" horiz-adv-x="640" 
d="M8 1792h256l128 -384h-128zM392 1792h206l88 -384h-128z" />
    <glyph glyph-name="uni0311" unicode="&#x311;" horiz-adv-x="768" 
d="M64 1408q0 200 70 292t249 92q181 0 251 -93t70 -291h-192q0 102 -24 147t-104 45t-104 -46t-24 -146h-192z" />
    <glyph glyph-name="uni0326" unicode="&#x326;" horiz-adv-x="330" 
d="M37 -79h256q-1 -250 -7 -310q-12 -114 -53 -158t-132 -44l-64 128q69 0 99 30t29 98h-128v256z" />
    <glyph glyph-name="Wgrave" unicode="&#x1e80;" horiz-adv-x="1558" 
d="M907 1792l128 -832l63 -512l65 512l128 832h256l-320 -1792h-256l-128 832l-64 512l-64 -512l-128 -832h-256l-320 1792h256l128 -832l65 -512l63 512l128 832h256zM459 2296h256l128 -384h-128z" />
    <glyph glyph-name="wgrave" unicode="&#x1e81;" horiz-adv-x="1269" 
d="M635 882l-138 -882h-246l-237 1280h227l142 -972l134 972h234l136 -962l140 962h228l-248 -1280h-236zM314 1784h256l128 -384h-128z" />
    <glyph glyph-name="Wacute" unicode="&#x1e82;" horiz-adv-x="1558" 
d="M907 1792l128 -832l63 -512l65 512l128 832h256l-320 -1792h-256l-128 832l-64 512l-64 -512l-128 -832h-256l-320 1792h256l128 -832l65 -512l63 512l128 832h256zM843 1912h-128l128 384h256z" />
    <glyph glyph-name="wacute" unicode="&#x1e83;" horiz-adv-x="1269" 
d="M635 882l-138 -882h-246l-237 1280h227l142 -972l134 972h234l136 -962l140 962h228l-248 -1280h-236zM698 1400h-128l128 384h256z" />
    <glyph glyph-name="Wdieresis" unicode="&#x1e84;" horiz-adv-x="1558" 
d="M907 1792l128 -832l63 -512l65 512l128 832h256l-320 -1792h-256l-128 832l-64 512l-64 -512l-128 -832h-256l-320 1792h256l128 -832l65 -512l63 512l128 832h256zM843 2168h256v-256h-256v256zM459 2168h256v-256h-256v256z" />
    <glyph glyph-name="wdieresis" unicode="&#x1e85;" horiz-adv-x="1269" 
d="M635 882l-138 -882h-246l-237 1280h227l142 -972l134 972h234l136 -962l140 962h228l-248 -1280h-236zM698 1656h256v-256h-256v256zM314 1656h256v-256h-256v256z" />
    <glyph glyph-name="Ygrave" unicode="&#x1ef2;" horiz-adv-x="1018" 
d="M381 0v576l-384 1216h256l256 -896l256 896h256l-384 -1216v-576h-256zM189 2296h256l128 -384h-128z" />
    <glyph glyph-name="ygrave" unicode="&#x1ef3;" horiz-adv-x="842" 
d="M74 -128q104 0 165 46t61 140l-290 1222h256q149 -823 161 -896q34 218 87 506q54 289 72 390h256l-320 -1344q-32 -142 -142 -199t-306 -57v192zM106 1784h256l128 -384h-128z" />
    <glyph glyph-name="endash" unicode="&#x2013;" horiz-adv-x="384" 
d="M0 640h384v-192h-384v192z" />
    <glyph glyph-name="emdash" unicode="&#x2014;" horiz-adv-x="384" 
d="M0 640h384v-192h-384v192z" />
    <glyph glyph-name="quoteleft" unicode="&#x2018;" horiz-adv-x="512" 
d="M256 1536h128v-256h-256l-3 189q0 192 50 258q50 65 145 65l64 -128q-68 0 -98 -30t-30 -98z" />
    <glyph glyph-name="quoteright" unicode="&#x2019;" horiz-adv-x="512" 
d="M128 1792h256q0 -250 -6 -310q-12 -114 -54 -158q-41 -44 -132 -44l-64 128q68 0 98 30t30 98h-128v256z" />
    <glyph glyph-name="quotesinglbase" unicode="&#x201a;" horiz-adv-x="384" 
d="M62 63h256l-64 -384h-128z" />
    <glyph glyph-name="quotedblleft" unicode="&#x201c;" horiz-adv-x="896" 
d="M640 1536h128v-256h-256l-3 189q0 192 50 258q50 65 145 65l64 -128q-68 0 -98 -30t-30 -98zM256 1536h128v-256h-256l-3 189q0 192 50 258q50 65 145 65l64 -128q-68 0 -98 -30t-30 -98z" />
    <glyph glyph-name="quotedblright" unicode="&#x201d;" horiz-adv-x="896" 
d="M512 1792h256q0 -250 -6 -310q-12 -114 -54 -158q-41 -44 -132 -44l-64 128q68 0 98 30t30 98h-128v256zM128 1792h256q0 -250 -6 -310q-12 -114 -54 -158q-41 -44 -132 -44l-64 128q68 0 98 30t30 98h-128v256z" />
    <glyph glyph-name="quotedblbase" unicode="&#x201e;" horiz-adv-x="704" 
d="M385 64h256l-64 -384h-128zM62 64h256l-64 -384h-128z" />
    <glyph glyph-name="daggerdbl" unicode="&#x2021;" horiz-adv-x="850" 
d="M550 500v-500h-250v500h-200v200h200v350h-200v200h200v286h250v-286h201v-200h-201v-350h201v-200h-201z" />
    <glyph glyph-name="bullet" unicode="&#x2022;" horiz-adv-x="960" 
d="M221 892q1 130 71 212q70 83 194 83q124 1 194 -83q71 -84 71 -214q-1 -130 -71 -212q-70 -83 -194 -83q-124 -1 -194 83q-71 84 -71 214z" />
    <glyph glyph-name="perthousand" unicode="&#x2030;" horiz-adv-x="2834" 
d="M1034 1518h219l-282 -1518h-220zM1421 488q-1 -292 133 -293q134 1 134 293t-134 292t-133 -292zM1276 140q-88 140 -88 353q0 212 86 347t280 135q276 1 346 -291q20 -86 21 -192q0 -106 -21 -192q-21 -88 -64 -156q-91 -145 -281 -144q-191 0 -279 140zM2390 780
q-133 0 -133 -292t133 -293q133 1 133 293t-133 292zM2023 460q0 515 367 515q225 1 314 -195q53 -116 53 -255q0 -138 -21 -225q-21 -88 -64 -156t-115 -106q-71 -38 -157 -38t-148 26q-116 48 -172 172q-57 124 -57 262zM311 1028q-1 -293 133 -293t134 293t-134 293
t-133 -293zM166 681q-88 140 -88 351q0 348 197 448q71 36 159 36t150 -24q116 -46 172 -167q55 -120 55 -259q1 -138 -21 -226t-65 -155q-91 -144 -281 -144t-278 140z" />
    <glyph glyph-name="guilsinglleft" unicode="&#x2039;" horiz-adv-x="582" 
d="M64 704l448 512v-320l-256 -255l256 -257v-320l-448 512v128z" />
    <glyph glyph-name="guilsinglright" unicode="&#x203a;" horiz-adv-x="577" 
d="M512 576l-448 -512v320l256 257l-256 255v320l448 -512v-128z" />
    <glyph glyph-name="fraction" unicode="&#x2044;" horiz-adv-x="537" 
d="M301 1901h219l-282 -1518h-220z" />
    <glyph glyph-name="uni2074" unicode="&#x2074;" horiz-adv-x="768" 
d="M384 960v256l-128 -256h128zM384 832h-320v128l340 576h172v-576h128v-128h-128v-256h-192v256z" />
    <glyph glyph-name="Euro" unicode="&#x20ac;" horiz-adv-x="971" 
d="M502 205q40 0 71 21q54 37 72 120q17 83 17 195h247q-1 -325 -129 -461q-100 -107 -286 -107q-348 0 -410 358q-14 78 -16 177h-68v166h68v153h-68v166h70q10 317 134 443q99 100 283 100q228 0 321 -140t95 -378h-250q0 291 -161 291q-53 1 -75 -13q-23 -14 -35 -24
t-21 -26q-9 -18 -15 -32t-11 -38q-13 -81 -13 -183h196v-166h-196v-153h196v-166h-194q7 -159 25 -197q19 -37 37 -61t46 -34q30 -10 70 -11z" />
    <glyph glyph-name="trademark" unicode="&#x2122;" horiz-adv-x="2204" 
d="M899 686h-158v832h242l104 -453l107 453h242v-832h-160v555l-137 -555h-103l-137 555v-555zM649 1518v-154h-164v-678h-170v678h-163v154h497z" />
    <glyph glyph-name="uni2206" unicode="&#x2206;" horiz-adv-x="1024" 
d="M64 0l297 1792h303l298 -1792h-898zM664 192l-152 1216l-151 -1216h303z" />
    <glyph glyph-name="product" unicode="&#x220f;" horiz-adv-x="1216" 
d="M1088 1792v-1792h-256v1600h-448v-1600h-256v1792h960z" />
    <glyph glyph-name="minus" unicode="&#x2212;" horiz-adv-x="768" 
d="M0 699h750v-151h-750v151z" />
    <glyph glyph-name="integral" unicode="&#x222b;" horiz-adv-x="704" 
d="M448 1376v-1248q0 -244 -75 -314t-215 -70q-62 0 -158 12v190q60 -10 86 -10q64 0 85 40t21 120v1248q0 154 25 221q25 68 57 98q69 65 208 65q62 0 158 -12v-190l-86 10q-64 0 -85 -40t-21 -120z" />
    <glyph glyph-name="lozenge" unicode="&#x25ca;" horiz-adv-x="896" 
d="M448 256l126 511l-126 513l-126 -512zM320 1536h258l252 -768l-252 -768h-258l-254 767z" />
    <glyph glyph-name="NULL" horiz-adv-x="0" 
 />
    <glyph glyph-name="commaaccent" horiz-adv-x="0" 
 />
    <glyph glyph-name="foundryicon" horiz-adv-x="1362" 
d="M221 277l168 542l-459 338l572 11l178 542l188 -542h572l-461 -349l170 -542l-469 327z" />
    <glyph glyph-name="nonbreakingspace" horiz-adv-x="330" 
 />
    <glyph glyph-name="periodcentered" horiz-adv-x="0" 
 />
    </font>
</defs>
</svg>
